秘密がーる♡乙女
MaMiKa(松下×mitsu×T.kakuta)

ADVANCED

Level: 7
BPM: 180
Notes: 523

1
口口口口 |----|
口口口口 |----|
口口口口 |----|
口口口口 |----|
2
口口口口 |----|
口口口口 |----|
口口口口 |----|
口口口口 |----|
3
口①口① |①---|
口口口口 |----|
口口口口 |②---|
口②口② |----|
4
③口口③ |①--②|
口①①口 |--③-|
口②②口 |----|
口口口口 |----|
5
口口口口 |①---|
①口①口 |----|
口口口口 |②---|
②口②口 |----|
6
①③③① |①--②|
口口口口 |--③-|
口②②口 |----|
口口口口 |----|
7
口②口② |①---|
口口口口 |----|
口口口口 |②---|
口①口① |----|
8
口③③口 |①--②|
①口口① |--③-|
口口口口 |----|
口②②口 |----|
9
①口口① |①---|
口口口口 |----|
口口口口 |②---|
②口口② |----|
10
④口口③ |①---|
口②①口 |②---|
口①②口 |③---|
③口口④ |④---|
11
口口口口 |①-②-|
④③②① |③-④-|
⑤⑥⑦⑧ |⑤-⑥-|
口口口口 |⑦-⑧-|
12
口④④口 |--①-|
②③③② |②-③-|
口口口口 |④---|
口①①口 |----|
13
口④④口 |①---|
口口口② |②---|
口③口口 |③---|
口①①口 |④---|
14
口④④口 |①---|
②口口口 |②---|
口口③口 |③---|
口①①口 |④---|
15
口口口口 |①---|
③①③① |②---|
口②④口 |③---|
口口口口 |④---|
16
③口口③ |①---|
口口口口 |②---|
口口口口 |③---|
①②②① |----|
17
口①①口 |①---|
口口③口 |②---|
口口口② |③---|
口④④口 |④---|
18
口①①口 |①---|
口③口口 |②---|
②口口口 |③---|
口④④口 |④---|
19
①①①① |--①-|
③口口③ |----|
口口口口 |②--③|
②④④② |--④-|
20
口口口口 |①-②-|
⑦①②⑧ |③-④-|
⑤③④⑥ |⑤-⑥-|
口口口口 |⑦-⑧-|
21
口①①口 |①---|
口口口口 |--②-|
口口③口 |----|
口口②口 |③---|
22
口口①① |①---|
口口口口 |--②-|
口③口口 |----|
口②口口 |③---|
23
①①口口 |①---|
口口④口 |--②-|
口③口口 |----|
口②②口 |③-④-|
24
口①②口 |①-②-|
口③口口 |③-④-|
口口④口 |----|
口口口口 |----|
25
口口③③ |①---|
口口口口 |--②-|
口口②口 |----|
口口①① |③---|
26
④④口口 |①---|
口③口口 |②---|
②口口口 |③---|
①①口口 |④---|
27
口⑦②口 |①---|
口③⑥口 |②-③-|
口⑤④口 |④-⑤-|
口①①口 |⑥-⑦-|
28
②口口① |①---|
②口口① |--②-|
口口口口 |----|
口口口口 |----|
29
口⑤口④ |--①-|
口③口⑥ |②-③-|
口⑦口② |④-⑤-|
口①口口 |⑥-⑦-|
30
②口①③ |①---|
口口口口 |②---|
②④①③ |③---|
口口④口 |④---|
31
②口口② |①---|
口①①口 |----|
口口口口 |②---|
口口口口 |----|
32
口口口口 |①---|
口口口口 |----|
口口口口 |----|
口①①口 |----|
33
口口④口 |①---|
口口①④ |--②-|
口口口口 |③---|
口③②口 |④---|
34
口⑤口口 |①-②-|
⑤口口口 |--③-|
口②①口 |④---|
口④③口 |⑤---|
35
口口④口 |①---|
口口①④ |--②-|
口口口口 |③---|
口③②口 |④---|
36
口⑤口口 |①-②-|
⑤口口口 |--③-|
口②①口 |④---|
口④③口 |⑤---|
37
口口口④ |①---|
口口①口 |--②-|
口③②④ |③---|
口口口口 |④---|
38
⑤口口口 |①-②-|
口②①口 |--③-|
⑤④③口 |④---|
口口口口 |⑤---|
39
④口口④ |①---|
口①①口 |--②-|
口③②口 |③---|
口口口口 |④---|
40
⑦①②⑧ |①-②-|
口③④口 |③-④-|
口⑤⑥口 |⑤-⑥-|
口口口口 |⑦-⑧-|
41
口①口口 |----|
口口①口 |①---|
口③③口 |②---|
口②②口 |③---|
42
口口口口 |①-②-|
②口口① |③-④-|
④口口③ |⑤-⑥-|
⑥⑧⑦⑤ |⑦-⑧-|
43
口⑥⑤口 |①-②-|
④⑧⑦③ |③-④-|
口②①口 |⑤-⑥-|
口口口口 |⑦-⑧-|
44
①口口① |①---|
口口口口 |--②-|
①②②① |----|
口②②口 |----|
45
口口口口 |①-②-|
口⑦①口 |③-④-|
④④⑥② |--⑤-|
口口③⑤ |⑥-⑦-|
46
口①⑦口 |①-②-|
②⑥④④ |③-④-|
⑤③口口 |--⑤-|
口口口口 |⑥-⑦-|
47
①口口① |----|
口口口口 |①---|
口③③口 |②---|
口②②口 |③---|
48
口②①口 |①---|
④①②③ |②---|
口口口口 |③---|
③口口④ |④---|
49
口口口口 |①-②-|
口口③口 |③-④-|
④④口②
口口①口

口⑤口口
口口口口
口口口口 |--⑤-|
口口⑥口 |--⑥-|
50
口口①⑤ |①-②-|
④④⑥② |③-④-|
口⑦③口 |--⑤-|
口口口口 |⑥-⑦-|
51
口口口口 |①-②-|
口③⑦口 |③-④-|
②⑥④④ |--⑤-|
⑤①口口 |⑥-⑦-|
52
①⑤④① |①---|
口口口口 |②-③-|
②④⑤② |--④-|
口③③口 |⑤---|
53
口口口④ |①-②-|
口①口④ |③-④-|
②口口口
口③口口

口口口口
口⑦口口
口口⑥口 |--⑤-|
口口口⑤ |⑥-⑦-|
54
④口口口 |①-②-|
④口①⑦ |③-④-|
口口⑥② |--⑤-|
口⑤③口 |⑥-⑦-|
55
④①①④ |----|
口④④口 |①---|
口③口口 |②---|
②口③② |③-④-|
56
口口口口 |----|
①口口① |--①-|
口口口口 |--②-|
口③②口 |③---|
57
口口①口 |----|
口②③① |①---|
口②③口 |②---|
口口口口 |③---|
58
口①口口 |①---|
①④口口 |②---|
③④口② |③---|
口③②口 |④---|
59
②口口② |①---|
口口①口 |----|
②口①② |②---|
口口口口 |----|
60
口口口口 |①---|
口口口口 |----|
口口口口 |----|
口①①口 |----|
61
口口口④ |①---|
口口①口 |②---|
口口②口 |③---|
口口③口 |④---|
62
④口口口 |①---|
口①口口 |②---|
口②口口 |③---|
口③口口 |④---|
63
口口口口 |①---|
口③①口 |②---|
口②④口 |③---|
口口口口 |④---|
64
①口口① |①---|
②口口② |②---|
③口口③ |③---|
④口口④ |④---|
65
口口口④ |①---|
口口口③ |②---|
口口②口 |③---|
口口①口 |④---|
66
④口口口 |①---|
③口口口 |②---|
口②口口 |③---|
口①口口 |④---|
67
口口口口 |①---|
④②①③ |②---|
口口口口 |③---|
口口口口 |④---|
68
口①①口 |①---|
口③③口 |②---|
口②②口 |③---|
口④④口 |④---|
69
口口①口 |①---|
口④④① |--②-|
口②③口 |③---|
口口口口 |④---|
70
口①⑤② |①-②-|
①口口⑤ |--③-|
口口口口 |④---|
口③口④ |⑤---|
71
口①口口 |①---|
①④④口 |--②-|
口③②口 |③---|
口口口口 |④---|
72
②口口① |①-②-|
④口口③ |③-④-|
口⑥⑤口 |⑤-⑥-|
口⑧⑦口 |⑦-⑧-|
73
④①①④ |①---|
口②②口 |②---|
口③③口 |③---|
口口口口 |④---|
74
口②①口 |①-②-|
口④③口 |③-④-|
口⑥⑤口 |⑤-⑥-|
口⑧⑦口 |⑦-⑧-|
75
口①①口 |①---|
③口口③ |②---|
②④④② |③---|
口口口口 |④---|
76
口①①口 |①---|
口②②口 |②---|
③④④③ |③---|
口④④口 |④---|
77
口口口口 |----|
口口口口 |----|
口口口口 |----|
口口口口 |----|
78
口口口口 |①-②-|
口④①⑤ |③-④-|
口④⑥② |--⑤-|
口⑦③口 |⑥-⑦-|
79
⑤①④⑦ |①-②-|
②⑥④口 |③-④-|
口③口口 |--⑤-|
口口口口 |⑥-⑦-|
80
④口口④ |----|
④③②④ |①---|
①②③① |②---|
口口口口 |③-④-|
81
口①①口 |----|
口口口口 |--①-|
口口口口 |--②-|
口③②口 |③---|
82
口①口口 |----|
①口口口 |①---|
口②②③ |②---|
口口③口 |③---|
83
④口①④ |①---|
口②②① |②---|
③口口口 |③---|
口③口口 |④---|
84
口口口口 |①---|
口②②口 |----|
口①①口 |②---|
口口口口 |----|
85
①①①① |①---|
口口口口 |----|
口口口口 |----|
②②②② |②---|

不確定度: 0

最終更新:2017年08月15日 23:18