キミとワタシのオンガク
seiya-murai feat. ALT

BASIC

Level: 4
BPM: 160
Notes: 266

1
口口口口 |----|
口口口口 |----|
口口口口 |----|
口口口口 |----|
2
口口口口 |①---|
口口②① |----|
口口口口 |②---|
口口口口 |----|
3
口口口口 |①---|
②①口口 |----|
口口口口 |②---|
口口口口 |----|
4
口口口口 |①---|
口口口口 |----|
口①①口 |②---|
口②②口 |----|
5
口口口口 |①---|
口口口口 |----|
①口口① |----|
口口口口 |----|
6
口口口口 |①---|
口口②① |----|
口口口口 |②---|
口口口口 |----|
7
口口口口 |①---|
②①口口 |----|
口口口口 |②---|
口口口口 |----|
8
口口口口 |①---|
口口口口 |----|
口①①口 |②---|
口②②口 |----|
9
口口口口 |①---|
口②②口 |----|
①口口① |②---|
口口口口 |----|
10
①口口口 |①---|
②口口口 |②---|
③口口口 |③---|
口④④口 |④---|
11
口①口口 |①---|
口②口口 |②---|
口③口口 |③---|
口④④口 |④---|
12
口口①口 |①---|
口口②口 |②---|
口口③口 |③---|
口④④口 |④---|
13
口口口① |①---|
口口口② |②---|
口口口③ |③---|
口④④口 |④---|
14
口口口① |①---|
口口口② |②---|
口口口③ |③---|
口④④口 |④---|
15
口口①口 |①---|
口口②口 |②---|
口口③口 |③---|
口④④口 |④---|
16
口①口口 |①---|
口②口口 |②---|
口③口口 |③---|
口④④口 |④---|
17
口口口③ |①---|
②口口② |----|
①口口① |②---|
口口口口 |③---|
18
口②①口 |①---|
口③④口 |②---|
口口口口 |③---|
口口口口 |④---|
19
口口口口 |①---|
口口口口 |②---|
口①②口 |③---|
口③④口 |④---|
20
口口口口 |①---|
口①①口 |----|
口②②口 |②---|
口口口口 |----|
21
③口口口 |①---|
口①口口 |②---|
口②口口 |----|
口口口口 |③---|
22
口①②口 |①---|
口④③口 |②---|
口口口口 |③---|
口口口口 |④---|
23
口口口口 |①---|
口口口口 |②---|
口②①口 |③---|
口④③口 |④---|
24
口口口口 |①---|
口口口口 |----|
口①①口 |②---|
口②②口 |----|
25
口口口口 |①---|
②口口② |----|
①口口① |②---|
口口口口 |----|
26
口③①口 |①---|
口④②口 |②---|
口口口口 |③---|
口口口口 |④---|
27
①口口① |①---|
口口口口 |----|
口口口口
口口口口

口口口③
口②②口
口口口口 |②---|
口口口口 |③---|
28
口②①口 |①---|
口③④口 |②---|
口口口口 |③---|
口口口口 |④---|
29
口①①口 |①---|
口②②口 |----|
口口口口 |②---|
口口口口 |----|
30
口口口口 |①---|
口口口口 |②---|
口③①口 |③---|
口④②口 |④---|
31
口口口口 |①---|
口口口口 |----|
①口口①
口口口口

口口口口
口口口口
口口口③ |②---|
②口口② |③---|
32
口口口口 |①---|
口口口口 |②---|
口②①口 |③---|
口③④口 |④---|
33
口口口口 |①---|
口②②口 |----|
口①①口 |②---|
口口口口 |----|
34
口口口① |①---|
口口口② |----|
口口口口 |②---|
口口口口 |----|
35
口口口口 |①---|
口口口口 |----|
口口口① |②---|
口口口② |----|
36
口口口口 |①---|
口口口口 |----|
口①①口 |----|
口口口口 |----|
37
口口口口 |----|
口①①口 |----|
口口口口 |----|
口口口口 |①---|
38
①口口口 |①---|
②口口口 |----|
口口口口 |②---|
口口口口 |----|
39
口口口口 |①---|
口口口口 |----|
①口口口 |②---|
②口口口 |----|
40
口口口口 |①---|
口口口口 |----|
口①①口 |----|
口口口口 |----|
41
口口口口 |----|
口口①口 |----|
口口口口 |①---|
口口口口 |----|
42
口口口口 |①---|
口①口口 |----|
口口口口 |----|
口口口口 |----|
43
口口①口 |----|
口②口口 |①---|
口口口口 |----|
口口口口 |②---|
44
口口口口 |----|
口口口口 |----|
口口口口 |----|
口口口口 |----|
45
口口口口 |----|
口口口口 |----|
口①①口 |①---|
口口口口 |----|
46
口口口口 |①---|
口①①口 |----|
口口口口 |----|
口口口口 |----|
47
①口口① |①---|
②口口② |----|
口口口口 |②---|
口口口口 |----|
48
①口口① |①---|
口②②口 |--②-|
口口口口 |----|
口③③口 |--③-|
49
口口口口 |----|
口口口口 |--①-|
①口口① |----|
口口②口 |②---|
50
口口口口 |①---|
口口②① |②---|
口口口口
口口口口

口口口口
④口口④
口③③口 |--③-|
口口口口 |--④-|
51
口口口① |----|
口口口② |----|
口口口口 |①---|
口口口口 |②---|
52
口口口口 |①---|
口②②口 |--②-|
口口口① |----|
口口口口 |----|
53
①口口口 |----|
②口口口 |----|
口口口口 |①---|
口口口口 |②---|
54
口口口口 |①---|
口③③口 |----|
①口口口 |--②-|
口②②口 |--③-|
55
口口口口 |----|
口口口口 |----|
口口口口 |①---|
口①②口 |②---|
56
口口口口 |①---|
③口口③ |--②-|
口②②口 |----|
①口口① |③---|
57
口口口口 |--①-|
口①①口 |----|
口口②口 |②---|
口③口口 |③---|
58
④口口④ |①---|
①②口口 |②---|
口③③口 |--③-|
口口口口 |--④-|
59
口口口口 |----|
口口①口 |----|
口②口口 |①---|
口口口口 |②---|
60
口①①口 |①---|
口口②口 |----|
口③口口 |--②-|
口口口口 |--③-|
61
①口口口 |----|
②口口口 |----|
口口口口 |①---|
口口口口 |②---|
62
口口口口 |①---|
口③③口 |----|
①口口口 |--②-|
口②②口 |--③-|
63
口口口口 |----|
口口口口 |----|
口口口口 |①---|
口①②口 |②---|
64
口口口口 |①---|
③口口③ |--②-|
口②②口 |----|
①口口① |③---|
65
口口口口 |--①-|
口①①口 |----|
口口②口 |②---|
口③口口 |③---|
66
①口口口 |①---|
②口口口 |②---|
③口口口 |③---|
口④④口 |④---|
67
口①口口 |①---|
口②口口 |②---|
口③口口 |③---|
口④④口 |④---|
68
口口①口 |①---|
口口②口 |②---|
口口③口 |③---|
口④④口 |④---|
69
口口口① |①---|
口口口② |②---|
口口口③ |③---|
口④④口 |④---|
70
口口口① |①---|
口口口② |②---|
口口口③ |③---|
口④④口 |④---|
71
口口①口 |①---|
口口②口 |②---|
口口③口 |③---|
口④④口 |④---|
72
口①口口 |①---|
口②口口 |②---|
口③口口 |③---|
口④④口 |④---|
73
③③③③ |①---|
口口口口 |----|
①②②① |②---|
口口口口 |③---|

不確定度: 0

最終更新:2017年08月15日 23:17