アキネイション
ビートまりお(COOL&CREATE)

BASIC

Level: 4
BPM: 185
Notes: 304

1
口口口口 |----|
口口口口 |----|
口口口口 |----|
口口口口 |----|
2
口口口口 |①---|
口口口口 |----|
口口②① |②---|
口口口口 |----|
3
口口口口 |①---|
口口口口 |----|
②①口口 |②---|
口口口口 |----|
4
口口口口 |①---|
①②口口 |----|
口口口口 |②---|
口口口口 |----|
5
口口口口 |①---|
口口①② |----|
口口口口 |②---|
口口口口 |----|
6
口口口口 |①---|
口口口口 |----|
口口②① |②---|
口口口口 |----|
7
口口口口 |①---|
口口口口 |----|
②①口口 |②---|
口口口口 |----|
8
口口口口 |①---|
①②口口 |----|
口口口口 |②---|
口口口口 |----|
9
口④口口 |①---|
口③口口 |②---|
口②口口 |③---|
口①口口 |④---|
10
口口口① |①---|
口口口② |②---|
口口口③ |③---|
口口口④ |④---|
11
口口④口 |①---|
口口③口 |②---|
口口②口 |③---|
口口①口 |④---|
12
口①口口 |①---|
口②口口 |②---|
口③口口 |③---|
口④口口 |④---|
13
口口口口 |①---|
③口口口 |②---|
②口口口 |③---|
①口口口 |----|
14
口口口① |①---|
口口口② |②---|
口口口③ |③---|
口口口④ |④---|
15
口口④口 |①---|
口口③口 |②---|
口口②口 |③---|
口口①口 |④---|
16
口①口口 |①---|
口②口口 |②---|
口③口口 |③---|
口④口口 |④---|
17
口口口口 |①---|
③口口口 |②---|
②口口口 |③---|
①口口口 |----|
18
口口口口 |①---|
口口②口 |----|
口口口① |②---|
口口口口 |----|
19
口口口口 |①---|
②口口口 |----|
口①口口 |②---|
口口口口 |----|
20
口口口口 |①---|
口②口口 |----|
①口口口 |②---|
口口口口 |----|
21
口口口口 |①---|
口口口② |----|
口口①口 |②---|
口口口口 |----|
22
口口口口 |①---|
口口口口 |----|
口口口① |②---|
口口②口 |----|
23
口口口口 |①---|
口口口口 |----|
口①口口 |②---|
②口口口 |----|
24
口口口口 |①---|
口口口口 |----|
①口口口 |②---|
口②口口 |----|
25
口口口口 |①---|
口口口口 |----|
口口①口 |②---|
口口口② |----|
26
口口口口 |①---|
口口②口 |----|
口口口① |②---|
口口口口 |----|
27
口口口口 |①---|
②口口口 |----|
口①口口 |②---|
口口口口 |----|
28
口口口口 |①---|
口②口口 |----|
①口口口 |②---|
口口口口 |----|
29
口口口口 |①---|
口口口② |----|
口口①口 |②---|
口口口口 |----|
30
口口口① |①---|
口口②口 |----|
口口口口 |②---|
口口口口 |----|
31
口①口口 |①---|
②口口口 |----|
口口口口 |②---|
口口口口 |----|
32
①口口口 |①---|
口②口口 |----|
口口口口 |②---|
口口口口 |----|
33
口口口口 |①---|
口口口口 |----|
口①①口 |----|
口口口口 |----|
34
口口口口 |①---|
②②①① |----|
口口口口 |②---|
口口口口 |----|
35
口口①口 |①---|
口口②口 |②---|
口口③口 |③---|
口口口口 |----|
36
口口口口 |①---|
口口口口 |----|
口口口口 |②---|
①①②② |----|
37
口③口口 |①---|
口②口口 |②---|
口①口口 |③---|
口口口口 |----|
38
口口口口 |①---|
口口口口 |----|
①①②② |②---|
口口口口 |----|
39
口①口口 |①---|
口②口口 |②---|
口③口口 |③---|
口口口口 |----|
40
口口口口 |①---|
①②③④ |②---|
口口口口 |③---|
口口口口 |④---|
41
口口口口 |①---|
口口口口 |②---|
口③②① |③---|
口口口口 |----|
42
口口口口 |①---|
①①②② |----|
口口口口 |②---|
口口口口 |----|
43
口①口口 |①---|
口②口口 |②---|
口③口口 |③---|
口口口口 |----|
44
口口口口 |①---|
口口口口 |----|
口口口口 |②---|
②②①① |----|
45
口口③口 |①---|
口口②口 |②---|
口口①口 |③---|
口口口口 |----|
46
口口口口 |①---|
口口口口 |②---|
①②④③ |③---|
口口口口 |④---|
47
口口口口 |①---|
①②④③ |②---|
口口口口 |③---|
口口口口 |④---|
48
④口口④ |①---|
③口口③ |②---|
②口口② |③---|
①口口① |④---|
49
口口口口 |①---|
口①①口 |----|
口①①口 |----|
口口口口 |----|
50
口口口口 |①---|
③④口口 |②---|
③④口口 |③---|
口口②① |④---|
51
①②口口 |①---|
口口④③ |②---|
口口④③ |③---|
口口口口 |④---|
52
口口口口 |①---|
①②口口 |②---|
③④口口 |③---|
口口口口 |④---|
53
口口①① |①---|
口口②② |②---|
口口③③ |③---|
口口④④ |④---|
54
口①①口 |①---|
口②③口 |----|
口口口口 |②---|
口口口口 |③---|
55
口口口口 |①---|
③口口③ |②---|
口①②口 |③---|
口口口口 |----|
56
口口①口 |①---|
口②口口 |②---|
口口③口 |③---|
口④口口 |④---|
57
②口口② |①---|
口口口口 |----|
①口口① |②---|
口口口口 |----|
58
口口口口 |①---|
口口④③ |②---|
口口④③ |③---|
①②口口 |④---|
59
口口②① |①---|
③④口口 |②---|
③④口口 |③---|
口口口口 |④---|
60
口口口口 |①---|
口口②① |②---|
口口④③ |③---|
口口口口 |④---|
61
①①口口 |①---|
②②口口 |②---|
③③口口 |③---|
④④口口 |④---|
62
口①①② |①---|
口口口③ |----|
口口口口 |②---|
口口口口 |③---|
63
口口口口 |①---|
口口口口 |②---|
口③③① |③---|
口口口② |----|
64
口口口口 |①---|
口①①口 |----|
口口口口 |②---|
口②②口 |----|
65
口口口口 |①--②|
④①①④ |--③-|
②口口② |④---|
口③③口 |----|
66
④③②① |①---|
口口口口 |②---|
口口口口 |③---|
口口口口 |④---|
67
口口口口 |①---|
①②③④ |②---|
口口口口 |③---|
口口口口 |④---|
68
口口口口 |①---|
口口口口 |②---|
④③②① |③---|
口口口口 |④---|
69
口口口口 |①---|
口口口口 |②---|
口口口口 |③---|
①②③口 |----|
70
④③②① |①---|
口口口口 |②---|
口口口口 |③---|
口口口口 |④---|
71
口口口口 |①---|
①②③④ |②---|
口口口口 |③---|
口口口口 |④---|
72
口口口口 |①---|
口口口口 |②---|
④③②① |③---|
口口口口 |④---|
73
口口口口 |①---|
口口口口 |②---|
口口口口 |③---|
①②③④ |④---|
74
①口口口 |①---|
②口口口 |②---|
③口口口 |③---|
④口口口 |④---|
75
口④口口 |①---|
口③口口 |②---|
口②口口 |③---|
口①口口 |④---|
76
口口①口 |①---|
口口②口 |②---|
口口③口 |③---|
口口④口 |④---|
77
口口口口 |①---|
口口口③ |②---|
口口口② |③---|
口口口① |----|
78
①口口口 |①---|
②口口口 |②---|
③口口口 |③---|
④口口口 |④---|
79
口④口口 |①---|
口③口口 |②---|
口②口口 |③---|
口①口口 |④---|
80
口口①口 |①---|
口口②口 |②---|
口口③口 |③---|
口口④口 |④---|
81
③①①③ |①---|
口②②口 |②---|
④口口④ |③---|
口口口口 |④---|
82
口口口口 |①---|
口口口口 |----|
口①①口 |----|
口①①口 |----|
83
④口口④ |①--②|
口①①口 |--③-|
②口口② |④---|
口③③口 |----|

不確定度: 0

最終更新:2017年08月15日 23:16