SPACE VILLAGE
サイバー劇レコ

BASIC

Level: 4
BPM: 170
Notes: 274

1
口口口口 |----|
口口口口 |----|
口口口口 |----|
口口口口 |----|
2
口口口口 |①---|
口口口口 |----|
口口口口 |②---|
①口口② |----|
3
口口口口 |①---|
口口口口 |----|
口口口口 |②---|
口①②口 |----|
4
口口口口 |①---|
口口口口 |----|
①口口② |②---|
口口口口 |----|
5
口口口口 |①---|
口口口口 |----|
口①②口 |②---|
口口口口 |----|
6
口口口口 |①---|
①口口② |----|
口口口口 |②---|
口口口口 |----|
7
口口口口 |①---|
口①②口 |----|
口口口口 |②---|
口口口口 |----|
8
①口口② |①---|
口口口口 |----|
口口口口 |②---|
口口口口 |----|
9
口①②口 |①---|
口口口口 |----|
口口口口 |②---|
口口口口 |----|
10
口口口口 |①---|
口①①口 |----|
口口口口 |----|
口口口口 |----|
11
口口口口 |----|
口口口口 |----|
口口口口 |----|
口口口口 |----|
12
口口口口 |①---|
口口口口 |----|
口①①口 |----|
口口口口 |----|
13
口口口口 |----|
口口口口 |----|
口口口口 |----|
口口口口 |----|
14
口口口口 |①---|
口①①口 |----|
口口口口 |----|
口口口口 |----|
15
口口口口 |----|
口口口口 |----|
口口口口 |----|
口口口口 |----|
16
口口口口 |①---|
②口口口 |②---|
③①①口 |③---|
④口口口 |④---|
17
口口口④ |①---|
口口口③ |②---|
口口口② |③---|
口口口① |④---|
18
口口④口 |①---|
口③口口 |②---|
口口②口 |③---|
口①口口 |④---|
19
口①口口 |①---|
口口②口 |②---|
口③口口 |③---|
口口④口 |④---|
20
口口口口 |①---|
①②③④ |②---|
口口口口 |③---|
口口口口 |④---|
21
口口口口 |①---|
口口口口 |②---|
④③②① |③---|
口口口口 |④---|
22
口④口口 |①---|
口口③口 |②---|
口②口口 |③---|
口口①口 |④---|
23
口口①口 |①---|
口②口口 |②---|
口口③口 |③---|
口④口口 |④---|
24
口口口口 |①---|
④③②① |②---|
口口口口 |③---|
口口口口 |④---|
25
口口口口 |①---|
口口口口 |②---|
①②③④ |③---|
口口口口 |④---|
26
口口口口 |①---|
②口口④ |②---|
①口口③ |③---|
口口口口 |④---|
27
②口口④ |①---|
①口口③ |②---|
口口口口 |③---|
口口口口 |④---|
28
口②④口 |①---|
口①③口 |②---|
口口口口 |③---|
口口口口 |④---|
29
口口口口 |①---|
口②④口 |②---|
口①③口 |③---|
口口口口 |④---|
30
口口口口 |①---|
②口口④ |②---|
①口口③ |③---|
口口口口 |④---|
31
②口口④ |①---|
①口口③ |②---|
口口口口 |③---|
口口口口 |④---|
32
口②④口 |①---|
口①③口 |②---|
口口口口 |③---|
口口口口 |④---|
33
①口口① |①---|
②口口② |----|
口口口口 |②---|
口口口口 |----|
34
①口口口 |①---|
②口口口 |②---|
③口口口 |③---|
④口口口 |④---|
35
口口口① |①---|
口口口② |②---|
口口口③ |③---|
口口口④ |④---|
36
口口口口 |①---|
口口口口 |----|
口②②口 |②---|
口①①口 |----|
37
口②②口 |①---|
口①①口 |----|
口口口口 |②---|
口口口口 |----|
38
①口口口 |①---|
②口口口 |②---|
③口口口 |③---|
④口口口 |④---|
39
口口口① |①---|
口口口② |②---|
口口口③ |③---|
口口口④ |④---|
40
口①①口 |①---|
口②②口 |----|
口口口口 |②---|
口口口口 |----|
41
口口口口 |①---|
口口口口 |----|
口①①口 |②---|
口②②口 |----|
42
④口口口 |①---|
③口口口 |②---|
②口口口 |③---|
①口口口 |④---|
43
口①②③ |①---|
口口口口 |②---|
口口口口 |③---|
口口口口 |----|
44
①口口口 |①---|
②口口口 |②---|
③口口口 |③---|
④口口口 |④---|
45
口口口口 |①---|
口口口口 |②---|
口口口口 |③---|
口①②③ |----|
46
口口口① |①---|
口口口② |②---|
口口口③ |③---|
口口口④ |④---|
47
口口口口 |①---|
口口口口 |②---|
口口口口 |③---|
③②①口 |----|
48
口口口④ |①---|
口口口③ |②---|
口口口② |③---|
口口口① |④---|
49
③②①口 |①---|
口口口口 |②---|
口口口口 |③---|
口口口口 |----|
50
口①①口 |①---|
口②②口 |----|
口口口口 |②---|
口口口口 |----|
51
口口口口 |①---|
口口口口 |----|
口①①口 |②---|
口②②口 |----|
52
口口口口 |①---|
①①①① |----|
口口口口 |----|
口口口口 |----|
53
口口口口 |①---|
①②③④ |②---|
口口口口 |③---|
口口口口 |④---|
54
口②①口 |①---|
口①②口 |②---|
口口口口 |③---|
口③③口 |----|
55
口口口口 |①---|
口口口口 |②---|
④③②① |③---|
口口口口 |④---|
56
①口口① |①---|
②口口② |②---|
③口口③ |③---|
口口口口 |----|
57
①②③④ |①---|
口口口口 |②---|
口口口口 |③---|
口口口口 |④---|
58
口口口口 |①--②|
口①口口 |--③-|
④口②④ |④---|
口③口口 |----|
59
口口口口 |①---|
④③②① |②---|
口口口口 |③---|
口口口口 |④---|
60
口口口口 |①---|
口口口口 |②---|
①②③④ |③---|
口口口口 |④---|
61
口口口口 |①---|
②①①口 |②---|
③口口口 |③---|
④口口口 |④---|
62
口④口口 |①---|
口③口口 |②---|
口②口口 |③---|
口①口口 |④---|
63
口口①口 |①---|
口口②口 |②---|
口口③口 |③---|
口口④口 |④---|
64
口口口④ |①---|
口口口③ |②---|
口口口② |③---|
口口口① |④---|
65
口口口口 |①---|
①②③④ |②---|
口口口口 |③---|
口口口口 |④---|
66
口口口口 |①--②|
口①口口 |--③-|
④口②④ |④---|
口③口口 |----|
67
口①口口 |①---|
口②口口 |②---|
口③口口 |③---|
口④口口 |④---|
68
口口④口 |①---|
口口③口 |②---|
口口②口 |③---|
口口①口 |④---|
69
口口口口 |①---|
口口口口 |----|
口①①口 |②---|
口②②口 |----|
70
口口口口 |①---|
②口口② |----|
①口口① |②---|
口口口口 |----|
71
口口口口 |①---|
口①①口 |----|
口②②口 |②---|
口口口口 |----|
72
②口口② |①---|
①口口① |----|
口口口口 |②---|
口口口口 |----|
73
口口口口 |①---|
①①②② |----|
口口口口 |②---|
口口口口 |----|
74
①①②② |①---|
口口口口 |----|
口口口口 |②---|
口口口口 |----|
75
口口口口 |①---|
口口口口 |----|
口①①口 |----|
口口口口 |----|
76
口①①口 |①---|
口口口口 |----|
口口口口 |----|
口口口口 |----|
77
口口口口 |①---|
①①①① |----|
口口口口 |----|
口口口口 |----|
78
口口口口 |①---|
口口口口 |----|
口①①口 |----|
口口口口 |----|
79
口口口口 |①---|
口口口口 |----|
口口口口 |----|
口①①口 |----|

不確定度: 0

最終更新:2017年08月15日 23:15