Good-bye Chalon
猫叉Master+

BASIC

Level: 4
BPM: 154
Notes: 243

1
口口口口 |----|
口口口口 |----|
口口口口 |----|
口口口口 |----|
2
口口口口 |----|
口口口口 |----|
口口口口 |----|
口口口口 |----|
3
①口口③ |①---|
口口口② |-②-③|
口口口口 |----|
口口口口 |----|
4
口口口口 |①---|
口口口口 |-②-③|
③口口① |----|
②口口口 |----|
5
口口口② |①---|
①口口③ |-②-③|
口口口口 |----|
口口口口 |----|
6
口口口口 |①---|
口④④口 |-②-③|
②口口口 |----|
③口口① |④---|
7
①口口③ |①---|
口口口② |-②-③|
口口口口 |----|
口口口口 |----|
8
口口口口 |①---|
口口口口 |-②-③|
③口口① |----|
②口口口 |----|
9
②口口③ |①---②-|
①口口④ |-③-④|
口口口口 |----|
口口口口 |----|
10
口口口口 |①---|
口口口口 |-②-③|
②④口口 |----|
③口口① |④---|
11
口口②口 |①---|
口口口口 |----|
口口①口 |②---|
口口口口 |----|
12
口①口口 |①---|
口口口口 |----|
口②口口 |②---|
口口口口 |----|
13
口口口口 |①---|
口口口② |----|
口口口口 |②---|
口口口① |----|
14
口口口口 |①---|
①口口口 |----|
口口口口 |②---|
②口口口 |----|
15
①口②口 |①---|
口④口③ |②---|
口口口口 |③---|
口口口口 |④---|
16
口口口口 |①---|
口口口口 |②---|
①口②口 |----|
口口口口 |----|
17
①口口② |①---|
口口口口 |----|
口口口口 |②---|
口口口口 |----|
18
口口口口 |①---|
口口口口 |----|
口③口口 |②---|
①口口② |③---|
19
口②④口 |①---|
口③⑤口 |②--③|
口口①口 |----|
口口口口 |④--⑤|
20
①口口③ |----|
②口口④ |①--②|
口口口口 |----|
口口口口 |③--④|
21
口口口口 |----|
口口口口 |----|
口口口口 |----|
口①①口 |①---|
22
口口口口 |①---|
口口口口 |----|
口①①口 |----|
口口口口 |----|
23
口②④口 |①---|
口③⑤口 |②--③|
口①①口 |----|
口口口口 |④--⑤|
24
①口口③ |----|
②口口④ |①--②|
口口口口 |----|
口口口口 |③--④|
25
口口口口 |----|
口口口口 |----|
口口口口 |----|
口①①口 |①---|
26
③口口③ |①---|
②口口② |----|
口①①口 |②---|
口口口口 |③---|
27
口口口口 |①---|
口口口口 |②---|
口④口③ |③---|
①口②口 |④---|
28
口④口③ |①---|
①口②口 |②---|
口口口口 |③---|
口口口口 |④---|
29
口口口口 |①---|
口口口口 |----|
口①①口 |----|
②口口② |②---|
30
口口口口 |①---|
①口口① |----|
口口口口 |----|
口口口口 |----|
31
口口口口 |①---|
口口口口 |②---|
口④口③ |③---|
①口②口 |④---|
32
口④口③ |①---|
①口②口 |②---|
口口口口 |③---|
口口口口 |④---|
33
口口口口 |①---|
②口口② |----|
口①①口 |----|
口口口口 |②---|
34
口口口口 |①---|
口口口口 |----|
②口口③ |②---|
①口口① |③---|
35
②口口口 |①---|
口①①口 |----|
口口口口 |②---|
口口口口 |----|
36
口口口① |①---|
口口口口 |----|
口③③口 |②---|
口②②口 |③---|
37
口口口口 |①---|
口①①口 |----|
②口口口 |②---|
口口口口 |----|
38
口②②口 |①---|
口③③口 |----|
口口口① |②---|
口口口口 |③---|
39
口口口口 |①---|
②口口③ |----|
口①①口 |②---|
口口口口 |③---|
40
口口口口 |①---|
口口口口 |②---|
①④④② |③---|
口③③口 |④---|
41
②口口口 |①---|
口①①口 |----|
口口口口 |②---|
口口口口 |----|
42
口口口① |①---|
②口口③ |②---|
口④⑤口 |③-④-|
口⑥口口 |⑤-⑥-|
43
口②③口 |①---|
口口口口 |②---|
口口口口 |③---|
口口①口 |----|
44
口口口口 |①---|
②口口③ |----|
口①①口 |②---|
口口口口 |③---|
45
口①①口 |①---|
口②②口 |-②--|
口③③口 |③---|
口④④口 |④---|
46
口①①口 |①---|
④口口④ |②---|
③口口③ |③---|
②口口② |④---|
47
①口口① |①---|
口③口口 |----|
口②口口 |②---|
口口口口 |③---|
48
口口口口 |①---|
口口①口 |②---|
④口②④ |③---|
③口口③ |④---|
49
口口口口 |①---|
①②口① |----|
口②口口 |②---|
口口口口 |----|
50
口口口口 |①---|
③口①③ |----|
②口①② |②---|
口口口口 |③---|
51
①口口① |①---|
口②口口 |----|
口口口口 |②---|
口口口口 |----|
52
口口口口 |①---|
口口①口 |----|
口②口口 |②---|
口口口口 |----|
53
②口口口 |①---|
口口口口 |----|
口口①口 |②---|
口口口口 |----|
54
口口口① |①---|
口口口口 |----|
口口口口 |②---|
②口口口 |----|
55
口口口口 |①---|
口②②口 |②---|
口口口口 |----|
口口口① |----|
56
①口口③ |①---|
口口口② |-②-③|
口口口口 |----|
口口口口 |----|
57
口⑥口口 |①---|
口⑤口口 |-②-③|
③④口① |-④-⑤|
②口口口 |-⑥--|
58
口口口② |①---|
①口口③ |-②-③|
口口口口 |----|
口口口口 |----|
59
口口口口 |①---|
口④④口 |-②-③|
②口口口 |----|
③口口① |④---|
60
①口口④ |①--②|
口口口③ |-③-④|
口口口② |----|
口口口口 |----|
61
口口口口 |①---|
口口口口 |-②-③|
③口口① |----|
②口口口 |----|
62
②口口③ |①---②-|
①口口④ |-③-④|
口口口口 |----|
口口口口 |----|
63
口口口口 |①---|
口口口口 |-②-③|
②④口口 |----|
③口口① |④---|
64
④口口⑤ |①---|
②口口③ |②--③|
口口①口 |----|
口口口口 |④--⑤|
65
口口口口 |----|
口口口口 |①--②|
③口口④ |----|
①口口② |③--④|
66
口口口口 |----|
口口口口 |----|
口口口口 |----|
口口口口 |----|
67
口口口口 |----|
口①①口 |----|
口口口口 |----|
口口口口 |①---|
68
口口口口 |----|
口口口口 |----|
口口口口 |----|
口口口口 |----|
69
口口口口 |----|
口口口口 |----|
口①①口 |①---|
口口口口 |----|


不确定度: 0

最終更新:2012年11月11日 16:32