がんばれゴエモン ~ビーストメドレー~
96

ADVANCED

Level: 6
BPM: 113-190
Notes: 370

BPM: 151
1
口口口口 |----|
口口口口 |----|
口口口口 |----|
口口口口 |----|
2
口口口口 |①---|
②①①② |----|
口口口口 |②---|
口口口口 |----|
3
④③口④ |--①-|
口口②口 |②-③-|
⑤①口⑤ |④---|
口口口口 |⑤---|
4
口口口口 |--①-|
①②③口 |②-③-|
⑦⑥⑤④ |④-⑤-|
口口口口 |⑥-⑦-|
5
①②③口 |--①-|
口口口口 |②-③-|
⑤⑥口④ |④---|
口口口④ |⑤-⑥-|
6
口②口口 |--①-|
①口③口 |②-③-|
⑦⑥⑤④ |④-⑤-|
口口口口 |⑥-⑦-|
7
①口③口 |--①-|
口②口口 |②-③-|
⑤⑥口④ |④---|
口口口④ |⑤-⑥-|
8
④口口④ |①---|
①③口① |②-③-|
口口口口 |④---|
口②口口 |----|
9
口⑦口口 |--①-|
口⑤⑥口 |②-③-|
口③④口 |④-⑤-|
口①②口 |⑥-⑦-|
10
③口口③ |①---|
①口口① |②---|
口口口口 |③---|
口②口口 |----|
11
口口口口 |--①-|
①②③口 |②-③-|
⑦⑥⑤④ |④-⑤-|
口口口口 |⑥-⑦-|
12
①②③口 |--①-|
口口口口 |②-③-|
⑤⑥口④ |④---|
口口口④ |⑤-⑥-|
13
口②口口 |--①-|
①口③口 |②-③-|
⑦⑥⑤④ |④-⑤-|
口口口口 |⑥-⑦-|
14
①口③口 |--①-|
口②口口 |②-③-|
⑤⑥口④ |④---|
口口口④ |⑤-⑥-|
15
口口口口 |①---|
口②③④ |②-③-|
口口口口 |④---|
口①①口 |----|
16
口④⑤口 |--①-|
口②③口 |②-③-|
口⑥⑦口 |④-⑤-|
口口①口 |⑥-⑦-|
17
③口口③ |①---|
①口口① |②---|
③口口③ |③---|
②口口② |----|
18
口⑤口口 |--①-|
④①⑥③ |②-③-|
口口②⑦ |④-⑤-|
口口口口 |⑥-⑦-|
19
口口口① |①---|
口口口② |②---|
口口①口
口口②口

口口口⑥
口④⑤口
③口口口 |③-④-|
口口口口 |⑤-⑥-|
20
②口口口 |①---|
①口口口 |②---|
口②口口
口①口口

口口口口
④口口④
口口口口 |③---|
③口口③ |④---|
21
④②④② |①---|
口口口口 |②---|
①口口③ |③---|
口③①口 |④---|
22
口⑤口口 |--①-|
④①⑥③ |②-③-|
口口②⑦ |④-⑤-|
口口口口 |⑥-⑦-|
23
⑥口口① |①---|
口⑤口② |②---|
④口①口 |③-④-|
口③②口 |⑤-⑥-|
24
口口①① |①---|
口口②② |②---|
口口③③ |③---|
口口④④ |④---|

BPM: 113
25
口口口口 |①---|
口①②口 |②---|
口④③口 |③---|
口口口口 |④---|
26
③④口口 |①---|
②口口口 |②---|
①口口口 |③---|
口口口口 |④---|
27
口口①② |①---|
口口口③ |②---|
口口口④ |③---|
口口口口 |④---|
28
口口口口 |①---|
口口口口 |②---|
口口口口 |③---|
④③②① |④---|
29
①②口口 |①---|
②③④口 |②---|
口④口口 |③---|
口口口口 |④---|
30
口口口口 |①---|
口口口④ |②---|
口口①② |③---|
口④②③ |④---|
31
①②③④ |①-②-|
⑧⑦⑥⑤ |③-④-|
口口口口 |⑤-⑥-|
口口口口 |⑦-⑧-|
32
口口口口 |①-②-|
口口口口 |③-④-|
①④⑤⑧ |⑤-⑥-|
②③⑥⑦ |⑦-⑧-|
33
①口口② |①-②-|
③口口④ |③-④-|
⑤口口⑥ |⑤-⑥-|
⑦口口⑧ |⑦-⑧-|
34
口①②口 |①-②-|
口③④口 |③-④-|
⑤⑤⑤⑤ |⑤---|
口口口口 |----|

BPM: 190
35
①口口② |①---|
③口口④ |②---|
口口口口 |③---|
口口口口 |④---|
36
口口口口 |①---|
口口口口 |②---|
口①②口 |③---|
口③④口 |④---|
37
口口口口 |①---|
口口口口 |②---|
③口口④ |③---|
①口口② |④---|
38
口③④口 |①---|
口①②口 |②---|
口口口口 |③---|
口口口口 |④---|
39
④口口口 |①---|
③口口口 |②---|
②口口口 |③---|
①口口口 |④---|
40
口口口④ |①---|
口口口③ |②---|
口口口② |③---|
口口口① |④---|
41
口④④口 |①---|
口③③口 |②---|
口②②口 |③---|
口①①口 |④---|
42
①口口口 |①---|
②口口口 |②---|
口④④口 |③---|
口③③口 |④---|
43
④口口① |①-②-|
⑤口口② |③---|
⑥口口③ |④-⑤-|
口口口口 |⑥---|
44
⑦口口⑧ |①-②-|
⑤口口⑥ |③-④-|
口③④口 |⑤-⑥-|
口①②口 |⑦-⑧-|
45
口⑥口口 |①-②-|
口①②⑦ |③-④-|
⑤④③口 |⑤-⑥-|
口口⑧口 |⑦-⑧-|
46
口口口口 |①-②-|
口①②口 |③-④-|
口③④⑤ |⑤---|
口口口口 |----|
47
口口口口 |--①-|
①②③口 |②-③-|
⑦⑥⑤④ |④-⑤-|
口口口口 |⑥-⑦-|
48
①②③口 |--①-|
口口口口 |②-③-|
⑤⑥口④ |④---|
口口口④ |⑤-⑥-|
49
口口口口 |--①-|
①②③口 |②-③-|
⑦⑥⑤④ |④-⑤-|
口口口口 |⑥-⑦-|
50
①②③口 |--①-|
口口口口 |②-③-|
⑤⑥口④ |④---|
口口口④ |⑤-⑥-|
51
口口口口 |--①-|
①②③口 |②-③-|
⑦⑥⑤④ |④-⑤-|
口口口口 |⑥-⑦-|
52
①②③口 |--①-|
口口口口 |②-③-|
⑤⑥口④ |④---|
口口口④ |⑤-⑥-|
53
口口口口 |--①-|
①②③口 |②-③-|
⑦⑥⑤④ |④-⑤-|
口口口口 |⑥-⑦-|
54
①②③口 |--①-|
口口口口 |②-③-|
⑤⑥口④ |④---|
口口口④ |⑤-⑥-|
55
口④⑤口 |--①-|
口②③口 |②-③-|
口⑥⑦口 |④-⑤-|
口口①口 |⑥-⑦-|
56
③口口③ |①---|
①口口① |②---|
③口口③ |③---|
②口口② |----|
57
口④⑤口 |--①-|
口②③口 |②-③-|
口⑥⑦口 |④-⑤-|
口口①口 |⑥-⑦-|
58
③口口③ |①---|
①口口① |②---|
③口口③ |③---|
②口口② |----|

不確定度: 0

最終更新:2017年08月15日 01:14