蟲の棲む処
かめりあ feat. Nana Takahashi

BASIC

Level: 4
BPM: 161.5
Notes: 255

1
口口口口 |----|
口口口口 |----|
口口口口 |----|
口口口口 |----|
2
口口口口 |----|
口口口口 |----|
口口口口 |----|
口口口口 |----|
3
口口口口 |----|
口口口口 |----|
口口口口 |----|
口①①口 |①---|
4
口口口② |①---|
口①①③ |----|
口口口口 |②---|
口口口口 |③---|
5
口口口口 |①---|
口口口口 |②---|
口口③① |----|
口口口② |③---|
6
口口口口 |①---|
②②口口 |----|
口①③口 |②---|
口口口口 |③---|
7
口口口口 |①---|
口③口口 |②---|
口②口口 |③---|
口①口口 |----|
8
②①①口 |①---|
③口口口 |----|
口口口口 |②---|
口口口口 |③---|
9
口口口口 |①---|
口口口口 |②---|
①③③口 |----|
②口口口 |③---|
10
①口口① |①---|
口③②口 |②-③-|
⑤口④口 |④---|
口口口口 |--⑤-|
11
③口口③ |①---|
④口口④ |--②-|
口口②口 |③---|
口①口口 |④---|
12
口口口口 |①---|
口口口口 |----|
①口口① |----|
口口口口 |----|
13
口口口口 |----|
口①①口 |----|
口口口口 |----|
口口口口 |①---|
14
口口口口 |①---|
口口②② |----|
口口口口 |②---|
口①①口 |----|
15
口口口口 |①---|
②②口口 |----|
口口口口 |②---|
口①①口 |----|
16
口口口口 |①---|
口口②② |----|
口口口口 |②---|
口①①口 |----|
17
①口口口 |①---|
②口口口 |②---|
③口口口 |③---|
④口口口 |④---|
18
口口口口 |①---|
②②口口 |----|
口口口口 |②---|
口①①口 |----|
19
口口口口 |①---|
口口②② |----|
口口口口 |②---|
口①①口 |----|
20
口口口口 |①---|
②口口② |②---|
口③③口 |③---|
①口口① |----|
21
口口口① |①---|
口口口② |②---|
口口口③ |③---|
口口口④ |④---|
22
口口口口 |①---|
②③口口 |----|
口①①口 |②---|
口口口口 |③---|
23
口口口口 |①---|
口口①口 |----|
口口口口
口口口口

口口口口
口口③②
口口口口 |②---|
口口口口 |③---|
24
口口口口 |①---|
口①口口 |----|
口②②口 |②---|
口口口口 |----|
25
口口口口 |----|
口口口口 |----|
口口②口 |①---|
口①口口 |②---|
26
口口口口 |①---|
②③口口 |----|
口①口口 |②---|
口口口口 |③---|
27
口口口口 |①---|
口口①口 |----|
口口口口
口口口口

口口口口
口口③②
口口口口 |②---|
口口口口 |③---|
28
口口口口 |①---|
口①口口 |----|
口②②口 |②---|
口口口口 |----|
29
口口口口 |①---|
口口口口 |----|
②口口② |②---|
口①①口 |----|
30
口②②口 |①---|
①口口① |----|
口口口口 |②---|
口口口口 |----|
31
口口口口 |①---|
口①①口 |----|
口①①口
口口口口

口口口口
口口口口
②②口口 |----|
口口口口 |②---|
32
①①④④ |①---|
口口②口 |--②-|
口③口口 |③---|
口口口口 |④---|
33
口口口口 |①---|
①①口口 |②---|
口口②② |----|
口口③③ |③---|
34
④④口口 |①---|
口②①① |--②-|
口口③口 |③---|
口口口口 |④---|
35
口口口口 |①---|
口口①① |②---|
②②④口 |③---|
口口③③ |--④-|
36
口口④④ |①---|
口①②口 |--②-|
口③口口 |③---|
口口口口 |④---|
37
口口口口 |①---|
①①口口 |②---|
口口②② |----|
口③③口 |③---|
38
②口口口 |①---|
③①①口 |②-③-|
④口口口 |④---|
口⑤口口 |--⑤-|
39
③口口③ |①---|
④口口④ |--②-|
口②口口 |③---|
口口①口 |④---|
40
口口②口 |①---|
口③口口 |②---|
①口④① |③---|
口口口口 |④---|
41
口口口口 |①---|
③⑤口④ |--②-|
口②口口 |③--④|
口①口口 |--⑤-|
42
口①①② |①---|
口口口口 |----|
口口口口 |----|
口口口口 |--②-|
43
口口口口 |①-②-|
口口口① |----|
口口口② |----|
口口口口 |----|
44
口①口口 |----|
口②口口 |①---|
口③口口 |②---|
口口口口 |③---|
45
口口口口 |①---|
④口⑤③ |--②-|
口口②口 |③--④|
口①口口 |--⑤-|
46
口①①口 |①---|
口口口口 |----|
口口口口 |----|
口口口口 |----|
47
口口口口 |----|
②③口口 |--①-|
口①口口 |②---|
口口口口 |③---|
48
口口口口 |①---|
口口①口 |②---|
口口口口 |③---|
口②③④ |④---|
49
口口口口 |①---|
口口口口 |②---|
口口口口 |③---|
①②③④ |④---|
50
口口口口 |①---|
口口口口 |②---|
口口口口 |③---|
①②③④ |④---|
51
口口口口 |①---|
口口口口 |②---|
口④④口 |③---|
①②③口 |④---|
52
①①①① |①---|
口②③④ |②---|
口口口口 |③---|
口口口口 |④---|
53
口口口口 |①---|
口口口口 |②---|
④③②① |③---|
口口口口 |④---|
54
口口口口 |①---|
口口口口 |②---|
口口口口 |③---|
①②③④ |④---|
55
口口口① |①---|
口口口② |②---|
口口口③ |③---|
口口口④ |④---|
56
口口口口 |①---|
口④③② |②---|
口①①口 |③---|
口口口口 |④---|
57
口口口口 |①---|
①口口口 |②---|
②③④口 |③---|
口口口口 |④---|
58
口口口口 |①---|
口②②口 |②---|
口④③① |③---|
口口口口 |④---|
59
①口口口 |①---|
②口口口 |②---|
③口口口 |③---|
④口口口 |④---|
60
口口口口 |①---|
口①①口 |----|
口口口口 |----|
口口口口 |----|
61
口口口口 |①---|
口口口口 |----|
口口口口 |----|
口①①口 |----|
62
口口口口 |①---|
口口①① |----|
口口口口 |----|
口口口口 |----|
63
口口口口 |①---|
①①口口 |----|
口②②口 |----|
口口口口 |②---|
64
口口口口 |----|
口①①口 |----|
口口口口 |①---|
口口口口 |----|
65
①①①① |---①|
口口口口 |----|
口口口口 |----|
口口口口 |----|

不確定度: 0

最終更新:2017年08月15日 01:09