CARNIVOROUS
SOUND HOLIC feat. Nana Takahashi

BASIC

Level: 3
BPM: 170
Notes: 223

1
口口口口 |----|
口口口口 |----|
口口口口 |----|
口口口口 |----|
2
口口口口 |----|
口口口口 |----|
口口口口 |----|
口口口口 |----|
3
口口口口 |①---|
②口口② |----|
①口口① |②---|
口口口口 |----|
4
口口口口 |①---|
②口口② |----|
①口口① |②---|
口口口口 |----|
5
口口口口 |①---|
口①②口 |----|
口口口口 |②---|
口口口口 |----|
6
口口口口 |①---|
口口口口 |----|
口①②口 |②---|
口口口口 |----|
7
口口口口 |①---|
①口口口 |----|
口口口口 |----|
口口口口 |----|
8
口口口口 |①---|
口口口① |----|
口口口口 |----|
口口口口 |----|
9
口口口口 |①---|
口①口口 |----|
口口口口 |----|
口口口口 |----|
10
口口口口 |①---|
口口①口 |----|
口口口口 |----|
口口口口 |----|
11
①口口① |①---|
口口口口 |----|
②②②② |----|
口口口口 |②---|
12
口①②口 |①---|
口口口口 |----|
口口口口 |②---|
口口口口 |----|
13
①口口② |①---|
口口口口 |----|
口口口口 |②---|
口口口口 |----|
14
口口口口 |①---|
口①②口 |----|
口口口口 |②---|
口口口口 |----|
15
口口口口 |①---|
①口口② |----|
口口口口 |②---|
口口口口 |----|
16
口口口口 |①---|
口口口口 |----|
口①②口 |②---|
口口口口 |----|
17
口口口口 |①---|
口口口口 |----|
①口口② |②---|
口口口口 |----|
18
口口口口 |①---|
口口口口 |----|
口口口口 |②---|
口①②口 |----|
19
口口口口 |①---|
口口口口 |----|
口口口口 |②---|
①口口② |----|
20
口口口口 |①---|
口口口口 |----|
口①①口 |----|
口口口口 |----|
21
口口口口 |①---|
口口口口 |----|
①口口② |②---|
口口口口 |----|
22
口口口口 |①---|
口①①口 |----|
口口口口 |----|
口口口口 |----|
23
口口口口 |①---|
①口口② |----|
口口口口 |②---|
口口口口 |----|
24
口①①口 |①---|
口②②口 |----|
口口口口 |②---|
口口口口 |----|
25
口口口口 |①---|
口口口口 |----|
口①①口 |----|
口口口口 |----|
26
口口口口 |①---|
①口口① |----|
②口口② |②---|
口口口口 |----|
27
口口口口 |①---|
口口口口 |----|
口口口口 |----|
①口口① |----|
28
口口口口 |①---|
口②口口 |----|
口①口口 |②---|
口口口口 |----|
29
口口口口 |①---|
口口②口 |----|
口口①口 |②---|
口口口口 |----|
30
①②③口 |①---|
口口口口 |②---|
口口口口 |③---|
口口口口 |----|
31
口③②① |①---|
口口口口 |②---|
口口口口 |③---|
口口口口 |----|
32
口口口口 |①---|
口①口口 |----|
口②口口 |②---|
口口口口 |----|
33
口口口口 |①---|
口口①口 |----|
口口②口 |②---|
口口口口 |----|
34
口口口口 |①---|
①口口口 |----|
②口口口 |②---|
口口口口 |----|
35
②口口② |①---|
口口口口 |--②-|
口①①口 |----|
口口口口 |----|
36
口口口口 |①---|
①②口口 |②---|
口③③口 |③---|
口口口口 |----|
37
口口口口 |①---|
口口②① |②---|
口③③口 |③---|
口口口口 |----|
38
①②③④ |①---|
口口口口 |②---|
口口口口 |③---|
口口口口 |④---|
39
口口口口 |①---|
口①①口 |②---|
口②②口 |③---|
口③③口 |----|
40
口口口口 |①---|
①②口口 |②---|
口口口口 |----|
口口口口 |----|
41
口口口口 |①---|
口③②① |②---|
口口口口 |③---|
口口口口 |----|
42
口口口口 |①---|
口②②口 |----|
口①①口 |②---|
口口口口 |----|
43
①口口① |①---|
②口口② |②---|
③口口③ |③---|
④口口④ |④---|
44
口口口口 |①---|
①②口口 |②---|
口③③口 |③---|
口口口口 |----|
45
口口口口 |①---|
口口②① |②---|
口③③口 |③---|
口口口口 |----|
46
①②③④ |①---|
口口口口 |②---|
口口口口 |③---|
口口口口 |④---|
47
口口口口 |①---|
口①①口 |②---|
口②②口 |③---|
口③③口 |----|
48
口口口口 |①---|
①②口口 |②---|
口口口口 |----|
口口口口 |----|
49
口口口口 |①---|
口③②① |②---|
口口口口 |③---|
口口口口 |----|
50
口①①口 |①---|
口②②口 |----|
口口口口 |②---|
口口口口 |----|
51
①口口① |①---|
②口口② |----|
口口口口 |②---|
口口口口 |----|
52
口口口口 |①---|
②②②② |②---|
①①①① |----|
口口口口 |----|
53
口口①口 |①---|
口口口口 |----|
口②③口 |②---|
口口口口 |③---|
54
口①口口 |①---|
口口口口 |----|
口③②口 |②---|
口口口口 |③---|
55
口口①口 |①---|
口口口口 |----|
口②③口 |②---|
口口口口 |③---|
56
口口口口 |①---|
口①口口 |----|
口口口口 |②---|
口③②口 |③---|
57
口口口口 |①---|
口口①口 |----|
口口口口 |②---|
口②③口 |③---|
58
口口口口 |①---|
口①口口 |----|
口口口口 |②---|
口③②口 |③---|
59
口口口口 |①---|
口口①口 |----|
口口口口
口口口口

口口口口
口③③口
口②②口 |②---|
口口口口 |③---|
60
口①②口 |①---|
口口口口 |----|
口口口口 |②---|
口口口口 |----|
61
①口口② |①---|
口口口口 |----|
口口口口 |②---|
口口口口 |----|
62
口口口口 |①---|
口①②口 |----|
口口口口 |②---|
口口口口 |----|
63
口口口口 |①---|
①口口② |----|
口口口口 |②---|
口口口口 |----|
64
口口口口 |①---|
口口口口 |----|
口①②口 |②---|
口口口口 |----|
65
口口口口 |①---|
口口口口 |----|
①口口② |②---|
口口口口 |----|
66
口口口口 |①---|
口口口口 |----|
口口口口 |②---|
口①②口 |----|
67
口口口口 |①---|
口口口口 |----|
口口口口 |②---|
①口口② |----|
68
口口口口 |①---|
口①①口 |----|
口②②口 |②---|
口口口口 |----|
69
口口口口 |①---|
口①①口 |----|
口②②口 |②---|
口口口口 |----|
70
口口口口 |①---|
①口口① |----|
②口口② |②---|
口口口口 |----|
71
口口口口 |①---|
①口口① |----|
②口口② |②---|
口口口口 |----|
72
口口口口 |①---|
口①①口 |----|
口②②口 |②---|
口口口口 |----|
73
口口口口 |①---|
口①①口 |----|
口②②口 |②---|
口口口口 |----|
74
口口口口 |①---|
①口口① |----|
②口口② |②---|
口口口口 |----|
75
口口口口 |①---|
①口口① |----|
②口口② |②---|
口口口口 |----|

不確定度: 0

最終更新:2017年08月15日 01:07