CARNIVOROUS
SOUND HOLIC feat. Nana Takahashi

ADVANCED

Level: 7
BPM: 170
Notes: 455

1
口口口口 |----|
口口口口 |----|
口口口口 |----|
口口口口 |----|
2
口口口口 |----|
①口口口 |----|
口口口口 |----|
口口口口 |--①-|
3
口口口口 |--①-|
⑤口口口 |②-③-|
口③④口 |④---|
口①②口 |--⑤-|
4
口口口⑥ |--①-|
口口口⑤ |②-③-|
口③④口 |④---|
口①②口 |⑤-⑥-|
5
口口②口 |----|
口①口口 |①---|
口口③口 |②--③|
口④口口 |--④-|
6
口口口口 |①---|
③②②④ |--②-|
⑤①口口 |--③-|
口口口口 |④-⑤-|
7
口口口口 |①-②-|
口③④口 |----|
口⑤口① |--③-|
②口口口 |④-⑤-|
8
口口口口 |--①-|
口④⑤③ |②-③-|
②口口① |----|
口口口口 |④-⑤-|
9
③口口口 |----|
①口口② |----|
口口口口 |--①-|
口口口口 |②-③-|
10
口口口口 |----|
③口口③ |----|
口①②口 |①-②-|
口口口口 |--③-|
11
①口口① |--①-|
口口口口 |----|
②②②② |----|
口口口口 |②---|
12
①②③口 |①-②-|
口④口口 |③---|
口口⑥口 |④--⑤|
口⑤口口 |--⑥-|
13
①口口② |①-②-|
③口口④ |③-④-|
⑤口口⑥ |⑤-⑥-|
⑦口口⑧ |⑦-⑧-|
14
①②③口 |①-②-|
口④口口 |③---|
口口⑥口 |④--⑤|
口⑤口口 |--⑥-|
15
①口口② |①-②-|
③口口④ |③-④-|
⑤口口⑥ |⑤-⑥-|
⑦口口⑧ |⑦-⑧-|
16
口③②① |①-②-|
口口④口 |③---|
口⑥口口 |④--⑤|
口口⑤口 |--⑥-|
17
②口口① |①-②-|
④口口③ |③-④-|
⑥口口⑤ |⑤-⑥-|
⑧口口⑦ |⑦-⑧-|
18
口③②① |①-②-|
口口④口 |③---|
口⑥口口 |④--⑤|
口口⑤口 |--⑥-|
19
②④口③ |①-②-|
口口口口 |③-④-|
口口①口
口口口口

口口⑤口
口⑥口口
口口⑦口 |⑤-⑥-|
口⑧口口 |⑦-⑧-|
20
口口口口 |--①-|
①口口② |②---|
口⑤⑤口 |③-④-|
③口口④ |--⑤-|
21
②④③① |--①-|
口口⑤口 |②-③-|
口⑥口口 |④-⑤-|
口口⑦口 |⑥-⑦-|
22
口口口口 |--①-|
②口口① |②---|
口⑤⑤口 |③-④-|
④口口③ |--⑤-|
23
①③④② |----|
口口口口 |①-②-|
口⑤口口 |③-④-|
口口口口 |--⑤-|
24
④口口口 |①---|
⑤①口口 |②-③-|
⑥口③口 |--④-|
口②口口 |⑤-⑥-|
25
②口③① |----|
口口口口 |--①-|
口口口口 |②-③-|
口④口口 |--④-|
26
口口口口 |--①-|
口①⑥口 |②-③-|
口②⑤口 |--④-|
口④③口 |⑤-⑥-|
27
口①②口 |----|
口口口口 |----|
口口口口 |----|
口口口口 |①-②-|
28
口口口口 |①---|
口①口口 |②-③-|
口口口口
口③②口

口口口口
口⑤⑤口
口口④口 |④---|
口口口口 |--⑤-|
29
口口口口 |--①-|
①⑤⑥② |②-③-|
③口口④ |④---|
口口口口 |⑤-⑥-|
30
①①②② |①---|
④④口口 |②---|
口③③口 |③---|
口口口口 |--④-|
31
口④⑤口 |--①-|
口口③③ |②---|
口口口口 |③---|
口①②口 |④-⑤-|
32
口口口口 |①---|
口①口口 |②-③-|
口口口口
口③②口

口口口口
口⑤⑤口
口口④口 |④---|
口口口口 |--⑤-|
33
口⑥口口 |--①-|
①⑤口② |②-③-|
③口口④ |④---|
口口口口 |⑤-⑥-|
34
口⑤口口 |--①-|
口③④口 |--②-|
口①①口 |--③-|
口②②口 |④-⑤-|
35
口口口④ |①---|
②口口② |②-③-|
④①①口 |----|
口③③口 |--④-|
36
④口口⑤ |--①-|
口口①口 |②-③-|
⑤②③④ |④---|
口口口口 |--⑤-|
37
④口口口 |--①-|
口⑤①⑤ |②-③-|
口②③④ |④---|
口⑥口⑥ |⑤-⑥-|
38
口口①① |----|
②口口口 |①---|
口③口口 |②--③|
口口④口 |--④-|
39
③②②④ |①---|
口②②口 |--②-|
⑤口口口 |--③-|
口①口口 |④-⑤-|
40
口口口口 |①-②③|
口口口口 |----|
口②③①
口口口口

口口口口
④口口⑤
口⑥⑦口 |--④-|
口口口口 |⑤-⑥⑦|
41
①②②① |--①-|
口③③口 |②-③-|
口口口口 |----|
口口口口 |----|
42
口口口口 |①---|
口③⑤口 |--②-|
②口口④ |③---|
口①①口 |④-⑤-|
43
口④④⑥ |①-②-|
②口口口 |③-④-|
⑥①③口 |----|
口⑤⑤口 |⑤-⑥-|
44
④口口⑤ |--①-|
口口①口 |②-③-|
⑤②③④ |④---|
口口口口 |--⑤-|
45
④口口口 |--①-|
口⑤①⑤ |②-③-|
口②③④ |④---|
口⑥口⑥ |⑤-⑥-|
46
口口①① |----|
②口口口 |①---|
口③口口 |②--③|
口口④口 |--④-|
47
口口口口 |①---|
③②②④ |--②-|
⑤口口口 |--③-|
口①口口 |④-⑤-|
48
口口口口 |①-②③|
口口口口 |----|
口②③①
口口口口

口口口口
④口口⑤
口⑥⑦口 |--④-|
口口口口 |⑤-⑥⑦|
49
口①②③ |--①-|
④口口口 |②-③-|
口⑤⑥口 |----|
口口口口 |④-⑤⑥|
50
口口口口 |----|
①口口② |----|
口③④口 |--①-|
口口口口 |②-③④|
51
③口口② |----|
口③③① |----|
口口口③ |①-②-|
口口口口 |--③-|
52
口口口口 |--①-|
口口口口 |②---|
口①①口
口②②口

口口口③
口口④口
口⑤口口 |③--④|
口口口口 |--⑤-|
53
④口口口 |--①-|
口⑤口① |②-③-|
口口⑥② |④--⑤|
口口口③ |--⑥-|
54
口⑥口④ |--①-|
①口⑤口 |②-③-|
②口口口 |④--⑤|
③口口口 |--⑥-|
55
④口⑥口 |--①-|
口⑤口① |②-③-|
口口口② |④--⑤|
口口口③ |--⑥-|
56
口口口口 |--①-|
④口口口 |②-③-|
⑤①②口 |④--⑤|
⑥③口口 |--⑥-|
57
口口口口 |--①-|
口口口④ |②-③-|
口②①⑤ |④--⑤|
口口③⑥ |--⑥-|
58
④口口口 |--①-|
⑤口口口 |②-③-|
⑥①②口 |④--⑤|
口③口口 |--⑥-|
59
口口④④ |--①-|
口口口口 |②-③-|
口②①口 |④---|
口口③口 |----|
60
①②③口 |①-②-|
口④口口 |③---|
口口⑥口 |④--⑤|
口⑤口口 |--⑥-|
61
①口口② |①-②-|
③口口④ |③-④-|
⑤口口⑥ |⑤-⑥-|
⑦口口⑧ |⑦-⑧-|
62
①②③口 |①-②-|
口④口口 |③---|
口口⑥口 |④--⑤|
口⑤口口 |--⑥-|
63
①口口② |①-②-|
③口口④ |③-④-|
⑤口口⑥ |⑤-⑥-|
⑦口口⑧ |⑦-⑧-|
64
口③②① |①-②-|
口口④口 |③---|
口⑥口口 |④--⑤|
口口⑤口 |--⑥-|
65
②口口① |①-②-|
④口口③ |③-④-|
⑥口口⑤ |⑤-⑥-|
⑧口口⑦ |⑦-⑧-|
66
口③②① |①-②-|
口口④口 |③---|
口⑥口口 |④--⑤|
口口⑤口 |--⑥-|
67
②⑦⑦① |①-②-|
④口口③ |③-④-|
⑥口口⑤ |⑤-⑥-|
口口口口 |⑦---|
68
口口口口 |①-②-|
④①口口 |③---|
⑥②口口 |④---|
⑤③口口 |⑤-⑥-|
69
口口口口 |①-②-|
口口①④ |③---|
口口②⑥ |④---|
口口③⑤ |⑤-⑥-|
70
口口口口 |①-②-|
④①口口 |③---|
⑥②口口 |④---|
⑤③口口 |⑤-⑥-|
71
口口口口 |①-②-|
口口①④ |③---|
口口②⑥ |④---|
口口③⑤ |⑤-⑥-|
72
④①口口 |①-②-|
口②口口 |③---|
⑥③口口 |④---|
⑤口口口 |⑤-⑥-|
73
口口①④ |①-②-|
口口②口 |③---|
口口③⑥ |④---|
口口口⑤ |⑤-⑥-|
74
④①口口 |①-②-|
口②口口 |③---|
⑥③口口 |④---|
⑤口口口 |⑤-⑥-|
75
口口①④ |①-②-|
口口②口 |③---|
口口③⑥ |④---|
口口口⑤ |⑤-⑥-|

不確定度: 0

最終更新:2017年08月15日 01:07