crêpe suzette
kamome sano

ADVANCED

Level: 8
BPM: 202
Notes: 604

1
口口口口 |----|
口口口口 |----|
口口口口 |----|
口口口口 |----|
2
口口口⑦ |①-②-|
口⑥口口 |③-④-|
④口⑤③ |--⑤-|
②口口① |⑥-⑦-|
3
③口口口 |--①-|
口口②④ |②-③-|
⑤①口口 |--④-|
口口⑥口 |⑤-⑥-|
4
③口口⑥ |--①-|
口⑤②口 |②-③-|
口①④口 |--④-|
口口口口 |⑤-⑥-|
5
③口口口 |--①-|
口口②口 |②-③-|
口①口口 |----|
口④④口 |④---|
6
口口口⑦ |①-②-|
口⑥口口 |③-④-|
④口⑤③ |--⑤-|
②口口① |⑥-⑦-|
7
③口口口 |--①-|
口口②④ |②-③-|
⑤①口口 |--④-|
口口⑥口 |⑤-⑥-|
8
口口口口 |--①-|
①口④口 |②-③-|
口⑤口② |--④-|
口③⑥口 |⑤-⑥-|
9
口②①口 |----|
②口口① |----|
口口口口 |①---|
口口口口 |②---|
10
口口口⑦ |①-②-|
口⑥口⑦ |③-④-|
④口⑤③ |--⑤-|
②口口① |⑥-⑦-|
11
③口④口 |--①-|
③口②口 |②-③-|
⑤①口口 |--④-|
口口⑥口 |⑤-⑥-|
12
③口口⑥ |--①-|
③⑤②⑥ |②-③-|
口①④口 |--④-|
口口口口 |⑤-⑥-|
13
③口口口 |--①-|
③口②口 |②-③-|
口①口口 |----|
口④④口 |④---|
14
口口口⑦ |①-②-|
口⑥口⑦ |③-④-|
④口⑤③ |--⑤-|
②口口① |⑥-⑦-|
15
③口④口 |--①-|
③口②口 |②-③-|
⑤①口口 |--④-|
口口⑥口 |⑤-⑥-|
16
口①口口 |--①-|
口口④口 |②-③-|
口口口② |--④-|
口③口口

口口
口口
口⑤
口口口 |⑤-⑥-|
17
口口口口 |----|
口口口口 |----|
口口口口 |----|
口口口口 |----|
18
口口口口 |----|
口口口口 |----|
口口口口 |----|
口口口口 |----|
19
口口口口 |----|
口口口口 |----|
口口口口 |----|
口口口口 |----|
20
口口口口 |----|
口口口口 |----|
口口口口 |----|
口口口口 |----|
21
口口口口 |----|
口口口口 |----|
口口口口 |----|
口口口口 |----|
22
口口口口 |----|
口口口口 |----|
口口口口 |----|
口口口口 |----|
23
口口口口 |----|
口口口口 |----|
口口口口 |----|
口口口口 |----|
24
②②②② |①---|
口口口口 |----|
口口口口 |②---|
口①口 |----|
25
⑦口口⑥ |①-②-|
④⑦⑥③ |③-④-|
口⑤⑤口 |--⑤-|
口②①口 |⑥-⑦-|
26
口③②口 |--①-|
③口④② |②-③-|
口⑤口口 |--④-|
⑥①①口 |⑤-⑥-|
27
④⑦⑦口 |①-②-|
口③口口 |③-④-|
⑥口②⑤ |--⑤-|
口口口① |⑥-⑦-|
28
口口口口 |--①-|
口口口口 |②-|
口口口口
口②①口


口口口口 |③-|
口口口口
口口口口

口口
口口口口
口④④口 |----|
口口口口 |④---|
29
⑦口口⑥ |①-②-|
④⑦⑥③ |③-④-|
口⑤⑤口 |--⑤-|
口②①口 |⑥-⑦-|
30
⑥③②⑤ |--①-|
③⑥⑤② |②-③-|
口④④口 |--④-|
口①①口 |⑤-⑥-|
31
⑦口口口 |--①-|
口⑥口口 |②-③-|
口口⑤口 |④-⑤-|
①②③④ |⑥-⑦-|
32
口口③③ |①-②-|
口口①① |③-④-|
④④口口
②②口口

口口口口
口⑤⑦口
口口⑥口 |--⑤-|
口口口口 |⑥-⑦-|
33
⑦口口⑥ |①-②-|
④⑦⑥③ |③-④-|
口⑤⑤口 |--⑤-|
口②①口 |⑥-⑦-|
34
口③②口 |--①-|
③口④② |②-③-|
口⑤口口 |--④-|
⑥①①口 |⑤-⑥-|
35
④⑦⑦口 |①-②-|
口③口口 |③-④-|
⑥口②⑤ |--⑤-|
口口口① |⑥-⑦-|
36
口口口口 |--①-|
口口口口 |②-|
口口口口
口②①口


口口口口 |③-|
口口口口
口口口口

口口
口口口口
口④④口 |----|
口口口口 |④---|
37
⑦口口⑥ |①-②-|
④⑦⑥③ |③-④-|
口⑤⑤口 |--⑤-|
口②①口 |⑥-⑦-|
38
口③②口 |--①-|
③口④② |②-③-|
口⑤口口 |--④-|
⑥①①口 |⑤-⑥-|
39
口口口口 |--①-|
⑤①口④ |②-③-|
口口②口 |--④-|
口⑥⑥③ |⑤-⑥-|
40
口④①口 |--①-|
口②⑤口 |②-③-|
口⑥③口 |④-⑤-|
口口口口 |⑥---|
41
口口口① |①---|
口口口② |②---|
口口口③ |③---|
口口口④ |④---|
42
口口口① |①---|
口口口② |②---|
口口口③ |③---|
口口口④ |④---|
43
口⑤⑦口 |①-②-|
口⑥⑧④ |③-④-|
①②③口 |⑤-⑥-|
口口口口 |⑦-⑧-|
44
③口口 |①-②-|
口口口 |--③-|
口②口 |④-|
口①口口

口口口口
口口
口 |⑤-|
口口 |⑥-|

口口口口
口口
口口口口
口口口口 |⑦-|
45
口口口① |①---|
口口口② |②---|
口口口③ |③---|
口口口④ |④---|
46
口口口① |①---|
口口口② |②---|
口⑥⑤口 |③-④-|
口④③口 |⑤-⑥-|
47
|①-|
口口口口
口口口口
口口口口

口口口 |②-|
|③-|
口口口口
口口口口

口口口口
口口口 |④-|
|⑤-|
口口口口

口口口口
口口口口
口口口 |⑥-|
口⑦口口 |⑦---|
48
①口口① |①---|
口口②口 |--②-|
口③口口 |--③-|
口口④口 |--④-|
49
口口口口 |----|
口口口① |①---|
口口口② |②---|
口口口③ |③---|
50
口口口① |①---|
口口口② |②---|
口口口③ |③---|
口口口④ |④---|
51
口口口口 |①-②-|
②④⑦⑤ |③-④-|
①③⑧⑥ |⑤-⑥-|
口口口口 |⑦-⑧-|
52
口口口 |①-|
口口口
口口口
口口口

口口 |②-|
口口口 |③-|
口口口
口口口

口口
口口 |④-|
口口 |⑤-|
口口口

口口口口
口口
口 |⑥-|
口口口 |⑦-|

口口口口
口口
口口口口
口口口口 |⑧-|
53
口口口① |①---|
口口口② |②---|
口口口③ |③---|
口口口④ |④---|
54
口口口① |①---|
口口口② |②---|
口⑥⑤口 |③-④-|
口④③口 |⑤-⑥-|
55
①口口① |①---|
口③②口 |②-③-|
口口口口
口口口口

口口口口

|--④-|
口④⑤口 |⑤-⑥-|
56
口口口 |----|
口 |----|
口 |①-|
口口


口口
口口 |②-|
口口 |③-|

口口口口
口口口口
口口口口
口口 |④-|
57
⑥口口⑤ |①-②-|
⑧④③⑦ |③-④-|
口②①口 |⑤-⑥-|
口口口口 |⑦-⑧-|
58
口口口口 |①---|
口②②口 |②---|
⑥⑤④③ |③-④-|
口①①口 |⑤-⑥-|
59
口①①口 |①---|
口口口口 |----|
口⑤④口 |②-③-|
口③②口 |④-⑤-|
60
⑤⑥④③ |①---|
①口口① |--②-|
口口口口 |③-④-|
口口②口 |⑤-⑥-|
61
⑦⑧⑥⑤ |①-②-|
口③②口 |③-④-|
口④①口 |⑤-⑥-|
口口口口 |⑦-⑧-|
62
口口口口 |①---|
口④③口 |②---|
②⑥⑤② |③-④-|
口①①口 |⑤-⑥-|
63
口①②③ |①-②-|
⑥⑤④口 |③-④-|
口⑦⑧口 |⑤-⑥-|
口口口口 |⑦-⑧-|
64
③口口口 |①-②-|
④口口口 |--③-|
⑤⑥⑦① |④-⑤-|
口口②口 |⑥-⑦-|
65
口①①口 |①---|
口②口口 |----|
口口③口 |--②-|
口口口口 |--③-|
66
口口口口 |----|
口口①口 |----|
口口口口 |①---|
口口口口 |----|
67
口口口口 |----|
口③②口 |①---|
口口口口 |--②-|
口①口口 |--③-|
68
口口口口 |----|
口口①口 |----|
口口②口 |①---|
口口口口 |②---|
69
口口口口 |①---|
口口③口 |----|
口②口口 |--②-|
口口①口 |--③-|
70
口口口口 |----|
口口口口 |----|
口口①口 |①---|
口口口口 |----|
71
口口口口 |①---|
口③②口 |----|
口①口口 |--②-|
口口口口 |--③-|
72
口口口口 |----|
口口②口 |----|
口口①口 |①---|
口口口口 |②---|
73
口①①口 |①---|
口②口口 |----|
口口③口 |--②-|
口口口口 |--③-|
74
口口口口 |----|
口口①口 |----|
口口口口 |①---|
口口口口 |----|
75
口⑧⑦口 |①-②-|
口⑥⑤口 |③-④-|
口④③口 |⑤-⑥-|
口②①口 |⑦-⑧-|
76
口口口口 |----|
口口口口 |----|
口①①口 |①---|
口②口口 |②---|
77
口口口口 |①---|
④口口④ |--②-|
①口②① |--③-|
口③口口 |④---|
78
②口口② |--①-|
口①口口 |----|
口③口口 |②---|
口口口口 |--③-|
79
口口口口 |--①-|
②口口② |②---|
口口③口 |--③-|
口口①口 |----|
80
口口 |①---|
口口 |----|
口口 |----|
口口 |----|
81
口口口口 |----|
口口口口 |----|
口口口口 |----|
口口口口 |----|
82
口口口口 |①---|
口口口口 |----|
|----|
口口口口 |----|
83
⑧口 |①-②-|
口②⑦口 |③-④-|
⑥③ |⑤-⑥-|
口④⑤口 |⑦-⑧-|
84
②口口① |①-②-|
口口⑦口 |③-④-|
④⑥⑤③ |--⑤-|
口口口口 |⑥-⑦-|
85
③⑤④口 |--①-|
①口⑥② |②-③-|
口口口口 |--④-|
口口口口 |⑤-⑥-|
86
口口口⑥ |--①-|
⑤口口④ |②-③-|
口③口口 |--④-|
口①②口 |⑤-⑥-|
87
口口 |--①-|
口①②口 |②-③-|
口口口口
口口口口

④口
口口口口
口口口口 |----|
口口口口 |④---|
88
②口口① |①-②-|
口口⑦口 |③-④-|
④⑥⑤③ |--⑤-|
口口口口 |⑥-⑦-|
89
③口口口 |--①-|
①口口② |②-③-|
口⑤④口 |--④-|
口口⑥口 |⑤-⑥-|
90
口口口口 |①-②-|
④口口② |③-④-|
口口口口
③口口①

口口
口口
⑥⑤ |⑤-⑥-|
口口 |⑦-|

口口
口口口口
口口口口
口口口口 |⑧-|
91
⑧口口⑦ |①-②-|
⑧④③⑦ |③-④-|
④⑥⑤③ |⑤-⑥-|
口②①口 |⑦-⑧-|
92
⑧④③⑦ |①-②-|
口⑧⑦口 |③-④-|
④口口③ |⑤-⑥-|
②⑥⑤① |⑦-⑧-|
93
口④③口 |①-②-|
④⑧⑦③ |③-④-|
⑧②①⑦ |⑤-⑥-|
⑥口口⑤ |⑦-⑧-|
94
口口口口 |①-②-|
③口口③ |③-|
口口口口
口②①口


|④-|

口口口口


口口口口
口⑤⑤口 |----|
口口口口 |⑤---|
95
⑧口口⑦ |①-②-|
⑧④③⑦ |③-④-|
④口口③ |⑤-⑥-|
⑥②①⑤ |⑦-⑧-|
96
口④③口 |①-②-|
口口口口 |③-④-|
④②①③
口口口口

口口口口
口⑥⑦
口口口 |⑤-⑥-|
口口⑤ |⑦-⑧-|
97
口口口口 |--①-|
⑤④ |②-③-|
①②口 |--④-|
③口口 |⑤-⑥-|
98
口口口口 |--①-|
④⑤⑥ |②-③-|
口②①口 |--④-|
口口③口 |⑤-⑥-|
99
口口口口 |--①-|
口口口口 |②-③-|
口②①口
口口③口



⑤ |④-⑤-|
口 |⑥-⑦-|
100
口口口口 |----|
口口口口 |----|
口口口口 |----|
口口口口 |----|
101
口 |----|
口口口口 |----|
口口口口 |----|
口口口口 |①---|

不確定度: 0

最終更新:2017年08月13日 14:04