Four Leaves
Endorfin.

BASIC

Level: 4
BPM: 181
Notes: 216

1
口口口口 |----|
口口口口 |----|
口口口口 |----|
口口口口 |----|
2
①口口① |①---|
口口口口 |----|
口口口口 |----|
口口口口 |----|
3
口口口口 |----|
口口口口 |----|
口口口口 |----|
口口口口 |----|
4
口口口口 |①---|
①口口① |----|
口口口口 |----|
口口口口 |----|
5
口口口口 |----|
口口口口 |----|
口口口口 |----|
口口口口 |----|
6
口口口口 |①---|
口口口口 |----|
①口口① |----|
口口口口 |----|
7
口口口口 |----|
口口口口 |----|
口口口口 |----|
口口口口 |----|
8
③口口③ |①---|
口口口口 |--②-|
口②②口 |----|
口①①口 |③---|
9
口口口口 |----|
口口口口 |----|
口口口口 |----|
口口口口 |----|
10
口口口口 |----|
口口口口 |----|
口①①口 |----|
口口口口 |--①-|
11
口口口口 |----|
口口口口 |----|
口口口口 |----|
口口口口 |----|
12
口口口口 |①---|
①口口口 |----|
口口口口 |----|
口口口口 |----|
13
口口口口 |①---|
口口口口 |----|
口①口口 |----|
口口口口 |----|
14
口口口口 |①---|
口口口口 |----|
口口口口 |----|
口口①口 |----|
15
口口口口 |①---|
口口口① |----|
口口口口 |----|
口口口口 |----|
16
口口口口 |①---|
口口口口 |----|
口口①口 |----|
口口口口 |----|
17
口口口口 |①---|
口口口口 |----|
口口口口 |----|
口①口口 |----|
18
口口口口 |①---|
口②②口 |----|
口口①口 |----|
口口口口 |--②-|
19
①②口口 |----|
口口口口 |----|
口口口口 |①---|
口口口口 |②---|
20
口口口口 |①---|
口①②口 |②---|
口口③④ |③---|
口口口口 |④---|
21
口口口口 |①---|
口口口口 |②---|
口口口口 |③---|
④③②① |④---|
22
口口口口 |①---|
口口②口 |----|
①③口口 |②---|
口口口口 |③---|
23
口口口口 |①---|
口口口口 |----|
口口口口 |----|
②口①口 |②---|
24
口口口口 |①---|
口口④口 |②---|
口②③口 |③---|
口①口口 |④---|
25
口口口口 |①---|
口口口① |----|
口口口口 |----|
口②口口 |②---|
26
口口口口 |①---|
口④口口 |②---|
口②③口 |③---|
口口①口 |④---|
27
口口口 |①---|
口口口 |----|
口口口口
口口口口

口口口口
口口
口口口口 |----|
口口口口 |②---|
28
口口口口 |----|
口口口口 |----|
②口口口 |①---|
①口口口 |②---|
29
口口口口 |①---|
口 |----|
口口口口
口口口口

口口口口
口口口
口口口口 |----|
口口口口 |②---|
30
口口口口 |----|
口口口口 |----|
口口口② |①---|
口口口① |②---|
31
口口口口 |①---|
口②口① |----|
口口口口 |----|
口口口口 |②---|
32
口口口口 |①---|
口口①口 |②---|
口②③口 |③---|
口④口口 |④---|
33
口口口③ |①---|
口口口口 |--②-|
口口口② |----|
口口①口 |③---|
34
口口口口 |----|
口①②口 |----|
口口口口 |①---|
口口口口 |②---|
35
口口口口 |①---|
口口口口 |----|
口①口口 |②---|
口口③② |③---|
36
口口口口 |①---|
④③口口 |②---|
口②①口 |③---|
口口口口 |④---|
37
①口口口 |①---|
口口口口 |----|
口口口口 |----|
口口口口 |----|
38
口口口口 |----|
口口①口 |----|
口②口口 |①---|
口口口口 |②---|
39
口口口口 |①---|
口口口口 |----|
口口口口 |----|
口口①口 |----|
40
口口口口 |----|
①口口② |①---|
口口口口 |----|
口口口口 |②---|
41
口口口口 |①---|
口①②口 |②---|
口③④口 |③---|
口口口口 |④---|
42
④口口口 |①---|
③口口口 |②---|
②口口口 |③---|
①口口口 |④---|
43
口①②③ |①---|
口口口④ |②---|
口口口口 |③---|
口口口口 |④---|
44
口口口口 |①---|
口②口口 |----|
口口③① |②---|
口口口口 |③---|
45
口口口口 |①---|
口口④口 |②---|
口③口口 |③---|
口①②口 |④---|
46
口①②口 |①---|
口③口口 |②---|
口口④口 |③---|
口口口口 |④---|
47
口口口口 |①---|
口口口口 |----|
口口口口 |----|
①口口口 |----|
48
①①口口 |①---|
口口口口 |----|
口③口口 |②---|
口口②口 |③---|
49
口口口① |①---|
口口口② |②---|
口口口③ |③---|
口口口④ |④---|
50
口口口口 |①---|
口口口口 |②---|
④口口口 |③---|
③②①口 |④---|
51
②③④口 |①---|
①口口口 |②---|
口口口口 |③---|
口口口口 |④---|
52
口口口① |①---|
口口口② |②---|
口口口口 |----|
口③口口 |③---|
53
口口口口 |①---|
口④口口 |②---|
口②③口 |③---|
口口①口 |④---|
54
④②③口 |①---|
口口①口 |②---|
口口口口 |③---|
口口口口 |④---|
55
口口口口 |----|
口③②① |①---|
口口口口 |②---|
口口口口 |③---|
56
口口②口 |①---|
①口口口 |----|
口口口口 |②---|
口口口口 |----|
57
口口口口 |①---|
口口口口 |②---|
①②③④ |③---|
口口口口 |④---|
58
口①②口 |①---|
口口口口 |----|
口口口口 |②---|
口口口口 |----|
59
口口口口 |①---|
①①②② |----|
口口口口 |②---|
口口口口 |----|
60
口口口口 |①---|
口口口口 |②---|
①②③④ |③---|
口口口口 |④---|
61
口口口口 |①---|
口①②口 |----|
口口口口 |②---|
口口口口 |----|
62
口①口口 |①---|
口口口口 |----|
口口②口 |②---|
口口口口 |----|
63
口口口口 |①---|
口口口口 |----|
口口口口 |----|
口口①① |----|
64
①①口口 |①---|
口口口口 |----|
口口口口 |----|
口口口口 |----|
65
口口①① |①---|
口口口口 |----|
口口口口 |----|
口口口口 |----|
66
口口口口 |①---|
口口口口 |----|
口口口口 |----|
①①口口 |----|
67
口口口口 |①---|
口口①口 |----|
口口口口 |----|
口口口口 |----|
68
口口口口 |①---|
口口口口 |----|
口①口口 |----|
口口口口 |----|
69
口口口口 |①---|
口口口口 |----|
口口口口 |----|
口口①口 |----|
70
口口口口 |①---|
口口口口 |----|
口口口口 |----|
①口口口 |----|
71
口口口口 |①---|
口口口口 |----|
口②口口 |②---|
口口①口 |----|
72
口②口口 |①---|
口口①口 |----|
口口口口 |②---|
口口口口 |----|
73
①口口① |①---|
口③③口 |--②-|
口②②口 |----|
口口口口 |③---|
74
口口口口 |----|
口口口口 |----|
口口口口 |①---|
①②口口 |②---|
75
口④口口 |①---|
口口③口 |②---|
口②口口 |③---|
口口①口 |④---|
76
②口口① |①---|
④口口③ |②---|
口口口口 |③---|
口口口口 |④---|
77
口口口口 |①---|
口口口口 |②---|
②口口① |③---|
④口口③ |④---|
78
口口口口 |①---|
口口口口 |----|
口②口口 |----|
口口①口 |②---|
79
④③②① |①---|
口口口口 |②---|
口口口口 |③---|
口口口口 |④---|
80
口口口口 |①---|
口口口口 |②---|
口口口口 |③---|
④③②① |④---|
81
口口口口 |①---|
④③②① |②---|
口口口口 |③---|
口口口口 |④---|
82
口口口口 |①---|
口口口口 |②---|
④③②① |③---|
口口口口 |④---|
83
口口口口 |①---|
口口口口 |----|
口口口口 |----|
口口①口 |----|
84
口口口口 |①---|
口口口口 |----|
口①口口 |----|
口口口口 |----|
85
口口口口 |①---|
口口①口 |----|
口口口口 |----|
口口口口 |----|
86
口①口口 |①---|
口③②口 |----|
口⑤④口 |②-③-|
口口口口 |④-⑤-|

不確定度: 0

最終更新:2017年08月13日 14:03