Four Leaves
Endorfin.

ADVANCED

Level: 7
BPM: 181
Notes: 428

1
口口口口 |----|
口口口口 |----|
口口口口 |----|
口口口口 |----|
2
①口口口 |①---|
口②口口 |②---|
口口③口 |③---|
口④⑤口 |④-⑤-|
3
口口④口 |--①-|
口口口① |--②-|
口②③口 |③---|
口口口口 |④---|
4
口口口① |①---|
口口②口 |②---|
口③口口 |③---|
口⑤④口 |④-⑤-|
5
口④口口 |--①-|
①口口口 |--②-|
口③②口 |③---|
口口口口 |④---|
6
①口口口 |①---|
口②口口 |②---|
口口③口 |③---|
口④⑤口 |④-⑤-|
7
口口④口 |--①-|
口口口① |--②-|
口②③口 |③---|
口口口口 |④---|
8
口口④④ |①---|
口①①口 |--②-|
口②②口 |--③-|
③③口口 |④---|
9
①口口口 |--①-|
③口口⑥ |②-③-|
⑤口口④ |④-⑤-|
⑦口口② |⑥-⑦-|
10
口口③① |①-②-|
④⑤⑥⑦ |③-④⑤|
⑧⑨⑩⑪ |⑥⑦⑧⑨|
⑫②口口 |⑩⑪⑫-|
11
①口口② |----|
口③④口 |--①-|
口口口口 |②---|
口口口口 |③-④-|
12
④④口口 |----|
口口口口 |①-②-|
口③口口 |--③-|
口①②口 |--④-|
13
口口口口 |----|
口口口口 |①-②-|
口③口① |----|
④口②口 |③-④-|
14
口口口口 |----|
口④③口 |--①-|
口口口口 |②---|
口②①口 |③-④-|
15
口口口口 |----|
口①②口 |----|
口口口口 |----|
口口口口 |①-②-|
16
①口口② |----|
口口口口 |①-②-|
口③④口 |----|
口口口口 |③-④-|
17
口①口口 |----|
口口②口 |----|
口③口口 |--①-|
口口口口 |②-③-|
18
口口口口 |①---|
④口口④ |--②-|
口④④口 |③---|
②口①③ |--④-|
19
①口口② |----|
口③④口 |--①-|
口口口口 |②---|
口口口口 |③-④-|
20
④④口口 |----|
口口口口 |①-②-|
口③口口 |--③-|
口①②口 |--④-|
21
口口口口 |----|
口口口口 |①-②-|
口③口① |----|
④口②口 |③-④-|
22
口口口口 |----|
口④③口 |--①-|
口口口口 |②---|
口②①口 |③-④-|
23
口口口口 |①---|
口④⑤口 |②---|
口③②① |③---|
口口口口 |④-⑤-|
24
①口口② |----|
口口口口 |①-②-|
口③④口 |----|
口口口口 |③-④-|
25
口口口口 |①---|
①②③口 |②---|
口口口口 |③---|
④口口⑤ |④-⑤-|
26
|--①-|
口③口口 |--②-|
口②口口 |--③-|
口①口口 |--④-|
27
口口① |----|
口口口口 |----|
口口口口 |----|
口口口口 |①---|
28
口口口 |----|
口口口 |--①-|
口③口 |②---|
口①②口 |③-④-|
29
口口口口 |----|
口口口口 |----|
口①口 |----|
口口口口 |①---|
30
口口口 |----|
口③口 |--①-|
口口口口 |②---|
①口口② |③-④-|
31
口②③口 |----|
口口口 |----|
口口口口 |①---|
口口口口 |②-③-|
32
口口口口 |----|
口③口口 |①-②-|
口口②口 |③---|
口①④口 |④---|
33
③口口③ |①---|
口口口口 |--②-|
口②②口 |----|
①口口① |③---|
34
口口口口 |----|
口①②口 |----|
口口口口 |①-②-|
口③口口 |--③-|
35
口口口口 |----|
口口口口 |----|
②口口① |①-②-|
④口口③ |③-④-|
36
口③口口 |--①-|
②口口口 |--②-|
口①口口 |--③-|
口口口口 |----|
37
口口口 |①---|
口口口 |----|
口口
口口口口

口口口口
口口口口
口口口 |----|
口口口口 |--②-|
38
口口口口 |----|
口①②口 |--①-|
口口口口 |②---|
口③④口 |③-④-|
39
口⑦⑧口 |①-②-|
④④⑤② |③-④-|
①①⑥③ |⑤-⑥-|
口口口口 |⑦-⑧-|
40
①口③② |----|
口口②③ |①---|
口口口口 |--②-|
口口口口 |--③-|
41
口口口口 |--①-|
口①口口 |②-③-|
口⑥②⑦ |④-⑤-|
③④⑤口 |⑥-⑦-|
42
口口口① |--①-|
②口口口 |--②-|
口④④口 |--③-|
③口口口 |--④-|
43
口①口口 |----|
口口②口 |①-②-|
③口口④ |--③-|
③口口④ |--④-|
44
④④口口 |----|
口口口口 |--①-|
口①口口 |②-③-|
口③②口 |--④-|
45
口⑤④口 |----|
口口①口 |①-②-|
口②③口 |③---|
口口口口 |④-⑤-|
46
②口③③ |----|
口②口口 |①---|
口口口口 |②---|
口口口① |③---|
47
口⑦⑧口 |①-②-|
④④⑤② |③-④-|
①①⑥③ |⑤-⑥-|
口口口口 |⑦-⑧-|
48
口口口口 |----|
④④口口 |--①-|
②口③口 |②--③|
①口口口 |--④-|
49
⑤口①① |①---|
口⑤口④ |②-③-|
口口口口 |--④-|
口③口② |--⑤-|
50
口口口① |----|
②口①口 |①---|
口②口③ |②---|
口口③口 |③---|
51
口⑤②口 |①---|
口③口口 |②-③-|
①口口口 |--④-|
口①口④ |--⑤-|
52
口口口口 |--①-|
口口口口 |②---|
口①②口 |----|
③口口口 |③---|
53
口口①① |①---|
口②口口 |②-③-|
口④③口 |----|
口口⑤口 |④-⑤-|
54
口口③口 |----|
口②口口 |①---|
①口口口 |②---|
口口口口 |③---|
55
口口口⑨ |--①②|
⑧口口口 |③④⑤⑥|
⑤⑥⑦口 |⑦--⑧|
①②③④ |--⑨-|
56
②口口口 |--①-|
口口④口 |--②-|
口③口① |--③-|
口口口口 |--④-|
57
⑨口口⑧ |--①②|
口口口口 |③④⑤⑥|
口⑦⑥⑤ |⑦--⑧|
④③②① |--⑨-|
58
口②口口 |--①-|
口口①口 |--②-|
口口口口 |--③-|
口口③口 |----|
59
口口②口 |①---|
口③口⑤ |②-③-|
口①①口 |--④-|
口口口④ |--⑤-|
60
口⑪口口 |--①②|
⑦⑧⑨⑩ |③④⑤⑥|
③④⑤⑥ |⑦⑧⑨⑩|
口①②⑫ |⑪-⑫-|
61
口口③口 |--①-|
口口口④ |②---|
口口⑤口 |③--④|
口①②口 |--⑤-|
62
口口口⑤ |--①-|
口③②口 |②-③-|
口①口口 |④--⑤|
口口④口 |----|
63
口①①口 |①---|
口口口口 |②-③-|
②口口③ |----|
口④⑤口 |④-⑤-|
64
①②口口 |①---|
口口③口 |--②-|
口口⑤口 |--③-|
口④口口 |④-⑤-|
65
⑤口口口 |①---|
口口④① |②-③-|
口②口口 |--④-|
口口③口 |--⑤-|
66
口口口口 |----|
口口②口 |----|
口①口口 |--①-|
口口口口 |--②-|
67
口口口口 |----|
口口口口 |----|
口口口口 |----|
口口口口 |----|
68
口口口口 |①---|
口①口口 |----|
口口口口 |----|
口口口口 |----|
69
口口口口 |①---|
口口口口 |----|
口口①口 |----|
口口口口 |----|
70
口口口口 |①---|
口口口口 |----|
口口口口 |----|
口①口口 |----|
71
口口口④ |①---|
口口口③ |②---|
口口口② |③---|
口口口① |④---|
72
④口口口 |①---|
③口口口 |②---|
②口口口 |③---|
①口口口 |④---|
73
口⑧⑦口 |①-②-|
⑤②④④ |③-④-|
⑥③①① |⑤-⑥-|
口口口口 |⑦-⑧-|
74
④口口口 |----|
口口口口 |--①-|
③口口口 |②--③|
口②①口 |--④-|
75
口口口① |①---|
口口口口 |②-③-|
口②③口
口口口口

口口⑤⑤
口口④口
口口口口 |--④-|
口口口口 |--⑤-|
76
①口口口 |----|
③①口② |①---|
口③②④ |②---|
口口口口 |③-④-|
77
口口②口 |①---|
口③口口 |----|
①口④口 |--②-|
口①口口 |③-④-|
78
口口口口 |----|
口口口口 |----|
口口口口 |----|
口口口① |①---|
79
①①口① |①---|
②②口⑥ |②-③-|
④④口③ |④---|
⑤⑤口口 |⑤-⑥-|
80
①①口口 |①---|
②②口口 |②---|
③③口口 |③---|
④④口④ |④---|
81
①①口① |①---|
②②口口 |②-③-|
④④口③ |④---|
⑤⑤⑤口 |⑤---|
82
①①①口 |①---|
②②口口 |②---|
③③③③ |③---|
④④④④ |④---|
83
口口口口 |①---|
口口①口 |----|
口口口口 |----|
口口口口 |----|
84
口口口口 |①---|
口口口口 |----|
口①口口 |----|
口口口口 |----|
85
口口口口 |①---|
口口口口 |----|
口口口口 |----|
口口①口 |----|
86
②②③③ |①---|
口口口口 |----|
口①口口 |②-③-|
④④⑤⑤ |④-⑤-|

不確定度: 0

最終更新:2017年08月13日 14:03