分けるな危険!モモモモモモーイズム
ARM×狐夢想 feat. 桃井はるこ

BASIC

Level: 4
BPM: 200
Notes: 258

1
口口口口 |----|
口口口口 |----|
口口口口 |----|
口口口口 |----|
2
口口 |①---|
口口 |----|
口口 |----|
口口 |----|
3
口口口口 |----|
口口口口 |----|
口口口口 |----|
口口口口 |----|
4
口口口口 |----|
口口口口 |----|
口口口口 |----|
口口口口 |----|
5
口口口口 |----|
口口口口 |----|
口口口口 |----|
口口口口 |----|
6
口口口口 |①---|
口口口口 |----|
口口口口 |----|
口口 |----|
7
口口口口 |①---|
口口口口 |----|
口口口口 |②---|
口①②口 |----|
8
口口口口 |①---|
口口口口 |----|
口①②口 |②---|
口口口口 |----|
9
口口口口 |①---|
①①口口 |----|
②②口口 |②---|
口口口口 |----|
10
口口口口 |①---|
口口①① |----|
口口②② |②---|
口口口口 |----|
11
口口口口 |①---|
①①口口 |----|
②②口口 |②---|
口口口口 |----|
12
口口口口 |①---|
口口①① |----|
口口②② |②---|
口口口口 |----|
13
口口口口 |①---|
口口③口 |----|
口②口口 |②---|
口①①口 |③---|
14
口①①口 |①---|
口口口口 |----|
口口口口 |----|
口口口口 |----|
15
口口口口 |①---|
①②③④ |②---|
口口口口 |③---|
口口口口 |④---|
16
口口口口 |①---|
口口口口 |②---|
口①②口 |----|
口口口口 |----|
17
口口口口 |①---|
口口口口 |②---|
①②③④ |③---|
口口口口 |④---|
18
口口口口 |①---|
④③②① |②---|
口口口口 |③---|
口口口口 |④---|
19
口①①口 |①---|
口②②口 |----|
口口口口 |②---|
口口口口 |----|
20
口口口口 |①---|
口口口口 |----|
口①①口 |----|
口口口口 |----|
21
口口口口 |①---|
口口口口 |②---|
①②③④ |③---|
口口口口 |④---|
22
口口口口 |①---|
④③②① |②---|
口口口口 |③---|
口口口口 |④---|
23
口①①口 |①---|
口②②口 |----|
口口口口 |②---|
口口口口 |----|
24
口口口口 |①---|
口口口口 |----|
口①①口 |②---|
口②②口 |----|
25
口口口口 |①---|
口口口口 |②---|
①②③④ |③---|
口口口口 |④---|
26
口口口口 |①---|
④③②① |②---|
口口口口 |③---|
口口口口 |④---|
27
口①①口 |①---|
口②②口 |----|
口口口口 |②---|
口口口口 |----|
28
口口口口 |①---|
口口口口 |----|
口①①口 |----|
口口口口 |----|
29
口口口口 |①---|
口口口口 |②---|
④③②① |③---|
口口口口 |④---|
30
④口口④ |①---|
①②③口 |②---|
口口口口 |③---|
口口口口 |--④-|
31
口口口口 |----|
口①①口 |----|
口口口口 |①---|
口口口口 |----|
32
口③③口 |①---|
口②口口 |----|
口①①口 |②---|
口口口口 |③---|
33
口口口① |①---|
口口口② |----|
口口口口 |②---|
口口口口 |----|
34
口口口口 |①---|
口口口口 |----|
口口口① |②---|
口口口② |----|
35
口口口口 |①---|
口口口口 |----|
口口②口 |②---|
口口①口 |----|
36
口口②口 |①---|
口口①口 |----|
口口口口 |②---|
口口口口 |----|
37
口①口口 |①---|
口②口口 |----|
口口口口 |②---|
口口口口 |----|
38
口口口口 |①---|
口口口口 |----|
口①口口 |②---|
口②口口 |----|
39
口口口口 |①---|
口口口口 |----|
②口口口 |②---|
①口口口 |----|
40
②口口口 |①---|
①口口口 |----|
口口口口 |②---|
口口口口 |----|
41
口口口口 |①---|
口①②口 |----|
口口口口 |②---|
口口口口 |----|
42
口口口口 |①---|
口口口口 |----|
口①口口 |----|
口口口口 |----|
43
口口口口 |①---|
口②①口 |----|
口口口口 |②---|
口口口口 |----|
44
口口口口 |①---|
口口口口 |----|
口口①口 |----|
口口口口 |----|
45
口口口口 |①---|
口①②口 |----|
口口口口 |②---|
口口口口 |----|
46
口口口口 |①---|
口口口口 |----|
口①口口 |----|
口口口口 |----|
47
口①①口 |①---|
口②②口 |----|
口口口口 |②---|
口口口口 |----|
48
口口口口 |①---|
口口口口 |----|
口①①口 |----|
口口口口 |----|
49
口口口口 |①---|
①口口口 |----|
口口口口 |----|
口口口口 |----|
50
口口口口 |①---|
口①口口 |----|
口口口口 |----|
口口口口 |----|
51
口口口口 |①---|
口口①口 |----|
口口口口 |----|
口口口口 |----|
52
口口口口 |①---|
口口口① |----|
口口口口 |----|
口口口口 |----|
53
口口口口 |①---|
口口口口 |----|
口①①口 |----|
口口口口 |----|
54
口口口口 |①---|
口①①口 |----|
口②口口 |②---|
口口口口 |----|
55
口口口口 |①---|
口口口口 |----|
口口口口 |----|
口口①口 |----|
56
口口 |①---|
口口 |----|
口口 |----|
口口 |----|
57
口口 |①---|
口口口口 |----|
口口口口 |----|
口口口口 |----|
58
口口口口 |①---|
口①②口 |----|
口口口口 |②---|
口口口口 |----|
59
口口口① |①---|
口口口② |②---|
口口口③ |③---|
口口口④ |④---|
60
①口口口 |①---|
②口口口 |②---|
③口口口 |③---|
④口口口 |④---|
61
口②①口 |①---|
口④③口 |②---|
口口口口 |③---|
口口口口 |④---|
62
口③②口 |①---|
口口口口 |----|
口口①口 |②---|
口口口口 |③---|
63
①口口口 |①---|
②口口口 |②---|
③口口口 |③---|
④口口口 |④---|
64
口口口① |①---|
口口口② |②---|
口口口③ |③---|
口口口④ |④---|
65
口①②口 |①---|
口③④口 |②---|
口口口口 |③---|
口口口口 |④---|
66
②口口口 |①---|
③口口口 |----|
口①口口 |②---|
口口口口 |③---|
67
口口口口 |①---|
口口口口 |----|
①口口口 |----|
口口口口 |----|
68
口口①口 |①---|
口②口口 |----|
口口口口 |②---|
口口口口 |----|
69
口口口口 |①---|
口口口口 |----|
口口①口 |----|
口口口口 |----|
70
口口口① |----|
口口口② |----|
口口口口 |①---|
口口口口 |②---|
71
口口口口 |①---|
口口口口 |----|
口口口① |----|
口②口口 |②---|
72
口口口口 |①---|
②口口② |--②-|
口口口口 |----|
口③①口 |③---|
73
口③①口 |①---|
口④②口 |②---|
口口口口 |③---|
口口口口 |④---|
74
②口③② |①---|
口口④口 |--②-|
口①①口 |③---|
口口口口 |④---|
75
口口口口 |①---|
口口口口 |②---|
口③④口 |③---|
口①②口 |④---|
76
①口口口 |①---|
②口口口 |②---|
③口口口 |③---|
④口口口 |④---|
77
口口口① |①---|
口口口② |②---|
口口口③ |③---|
口口口④ |④---|
78
口口口口 |①---|
口③④口 |②---|
口①②口 |③---|
口口口口 |④---|
79
①口口口 |①---|
②口口口 |②---|
③口口口 |③---|
④口口口 |④---|
80
口口口① |①---|
口口口② |②---|
口口口③ |③---|
口口口④ |④---|
81
口口口口 |①---|
口口口口 |②---|
口③④口 |③---|
口①②口 |④---|
82
口口口口 |①---|
③①口③ |----|
②口口② |②---|
口口口口 |③---|
83
①口口① |①---|
口口口口 |----|
口口口口 |----|
口口口口 |----|
84
口口口口 |①---|
口口①口 |----|
口②口口 |②---|
口口口口 |----|
85
口口口口 |①---|
口口口口 |----|
口口口口 |----|
口①①口 |----|
86
口口口口 |①---|
口①①口 |----|
③口口③ |②---|
②口口② |③---|
87
口口 |①---|
口口 |----|
口口口口 |----|
口口口口 |----|
88
口口口口 |----|
口口口口 |----|
口口口口 |----|
口口口口 |----|
89
①① |①---|
口口口口 |----|
口口口口 |----|
口口口口 |----|
90
口口口口 |①---|
口②①口 |----|
口口口口 |②---|
口口口口 |----|
91
口口 |①---|
口口 |----|
口口 |----|
口口 |----|
92
口口口口 |----|
口口口口 |----|
口口口口 |----|
口口口口 |----|
93
①① |①---|
口口口口 |----|
口口口口 |----|
口口口口 |----|
94
口口口口 |①---|
口①①口 |----|
口①①口 |----|
口口口口 |----|

不確定度: 0

最終更新:2017年08月13日 13:53