Good-bye Chalon
猫叉Master+

ADVANCED

Level: 8
BPM: 154
Notes: 434

1
口口口口 |----|
口口口口 |----|
口口口口 |----|
口口口口 |----|
2
口口口口 |----|
①口口① |----|
口口口口 |----|
口口口口 |--①-|
3
②口口⑤ |①--②|
口③⑥口 |-③-④|
④①①口 |----|
口口口口 |⑤-⑥-|
4
口③③口 |①---|
口口口口 |-②-③|
口④口① |----|
口②②口 |--④-|
5
口③③口 |①---|
口口口口 |-②-③|
口口①口
口②②口

口口口口
口④⑤口
口⑥⑦口 |----|
口口口口 |④⑤⑥⑦|
6
口③③口 |①---|
口口口口 |-②-③|
口口口口
①②②①

口口口口
口口口口
口口口口 |----|
④口口④ |④---|
7
①③③① |①---|
口④⑤口 |-②-③|
口⑥⑦口 |--④⑤|
⑧②②⑨ |⑥⑦⑧⑨|
8
②④④② |①-②-|
①口口① |-③-④|
口口口口
口③③口

⑤口口⑤
口口口口
口口口口 |----|
口口口口 |--⑤-|
9
口⑤⑤口 |①-②-③-|
①口口口 |-④-⑤|
口②口口
③④④口

口口口口
口⑥⑦口
口⑧⑨口 |----|
口口口口 |⑥⑦⑧⑨|
10
口③③口 |①---|
口口口口 |-②-③|
口口口口
①②②①

口口口口
口口口口
口口口口 |----|
④口口④ |④---|
11
①口口① |①---|
口口口口 |----|
口口口口 |②---|
口②②口 |----|
12
口②③口 |①---|
口④口口 |----|
⑤①①⑤ |②③④-|
⑥口口⑥ |⑤-⑥-|
13
口口口口 |①---|
口口口口 |----|
口②②口 |②---|
口①①口 |----|
14
口②②口 |①---|
口①①口 |----|
口口口口 |②-③④|
口③④口 |----|
15
①②口口 |-①-②|
口③④⑤ |--③-|
口口口口 |④-⑤-|
口口口口 |----|
16
口口口口 |①-②-|
口口口口 |③---|
①②③口 |----|
口口④④ |--④-|
17
①①口口 |----|
口口口口 |----|
口口口口 |----|
口口口口 |①---|
18
口口口口 |----|
口口口口 |----|
口口口口 |----|
口①①口 |①---|
19
③③⑤⑤ |①---|
②①①④ |②--③|
口口口口 |----|
口口口口 |④--⑤|
20
口口口口 |----|
口口口口 |①--②|
②②④④ |----|
①口口③ |③--④|
21
口口口口 |----|
口①①口 |----|
口口口口 |----|
口口口口 |①---|
22
口口口口 |①---|
口口口口 |----|
口口口口 |----|
口①①口 |----|
23
③③⑤⑤ |①---|
②①①④ |②--③|
口口口口 |----|
口口口口 |④--⑤|
24
口口口口 |----|
口口口口 |①--②|
②②④④ |----|
①口口③ |③--④|
25
口口口口 |----|
口口口口 |----|
口口口口 |----|
口①①口 |①---|
26
口③③口 |①---|
口①①口 |----|
口②②口 |②---|
口口口口 |③---|
27
⑥口口⑦ |①-②-|
口③③口 |③-④⑤|
口⑧⑨口 |--⑥-|
①④⑤② |⑦-⑧⑨|
28
口⑥⑥口 |--①-|
口③④口 |②-③④|
口⑤⑤口 |----|
①口口② |⑤--⑥|
29
口口口口 |----|
口①①口 |----|
口口口口 |----|
口口口口 |①---|
30
口口口口 |①---|
口口口口 |----|
口口口口 |----|
口①①口 |----|
31
⑥口口⑦ |①-②-|
口③③口 |③-④⑤|
口⑧⑨口 |--⑥-|
①④⑤② |⑦-⑧⑨|
32
口⑥⑥口 |--①-|
口③④口 |②-③④|
口⑤⑤口 |----|
①口口② |⑤--⑥|
33
②口口② |----|
口③③口 |①--②|
①口口① |----|
口口口口 |③---|
34
②口口② |①---|
③口口③ |----|
口口口口 |②---|
口①①口 |③---|
35
口②口口 |①---|
口③④口 |--②-|
口口口口 |③---|
①口口① |--④-|
36
口口口口 |①---|
⑥口口⑥ |--②-|
⑤②①⑤ |③-④-|
④③口④ |⑤-⑥-|
37
口口①口 |----|
口③②口 |--①-|
口口口口 |②---|
口口口口 |--③-|
38
口口口口 |①---|
⑥口口⑥ |--②-|
⑤①②⑤ |③-④-|
④口③④ |⑤-⑥-|
39
①②④① |①---|
口③⑤口 |--②-|
口⑥口口 |③-④-|
口口口口 |⑤-⑥-|
40
口口口口 |①-②-|
口口口口 |③---|
⑥口②⑦ |④-⑤-|
④①③⑤ |⑥-⑦-|
41
②①①④ |①---|
③口口口 |--②-|
口口口口 |③---|
口口口口 |--④-|
42
口④②口 |①-②-|
口⑤③① |③-④-|
口⑨⑩⑥ |⑤⑥⑦⑧|
⑦⑪⑫⑧ |⑨⑩⑪⑫|
43
①口口口 |①-②-|
②⑥⑥④ |③-④-|
③口口⑤ |⑤---|
口口口口 |--⑥-|
44
②⑥口④ |①---|
③口口⑤ |--②-|
口①①口 |③-④-|
口口口口 |⑤-⑥-|
45
口口②口 |①-②-|
口①③口 |③-④-|
口④⑥口 |⑤-⑥-|
口⑤⑦口 |⑦---|
46
⑤⑥⑥口 |①-②-|
④口口③ |③-④-|
口口口② |⑤---|
口口口① |⑥---|
47
口口口口 |①---|
②④⑥口 |--②-|
③⑤口口 |③-④-|
口①①口 |⑤-⑥-|
48
⑥⑧⑧⑦ |①-②-|
口口口② |③-④-|
口口①③ |⑤-⑥-|
④口口⑤ |⑦-⑧-|
49
口口口口 |①---|
②①①④ |--②-|
③口口口 |③---|
口口口口 |--④-|
50
口口口口 |①---|
口②②口 |--②-|
口口口①
口口口口

口口口口
口口口口
④③③④ |③---|
口口口口 |④---|
51
①口口① |①---|
②口口口 |----|
口口口口 |②---|
口口口口 |----|
52
口口口口 |①---|
口口口① |----|
口③③口 |②---|
口②②口 |③---|
53
口口口口 |①---|
①口口② |----|
口口口口 |②---|
口口口口 |----|
54
口口口口 |①---|
口口口口 |----|
①口口② |②---|
口口口口 |----|
55
口②②口 |①---|
口口口口 |②---|
口口口口 |----|
口①①口 |----|
56
②口口⑤ |①--②|
口③⑥口 |-③-④|
④①①口 |----|
口口口口 |⑤-⑥-|
57
口③③口 |①---|
口口口口 |-②-③|
口口口①
口②②口

⑤口口⑤
口口口口
⑥口口⑥ |-④-⑤|
④口口④ |-⑥--|
58
口③③口 |①---|
口①①口 |-②-③|
口口口口
口②②口

口口口口
口④⑤口
口⑥⑦口 |----|
口口口口 |④⑤⑥⑦|
59
口③③口 |①---|
口口口口 |-②-③|
口口口口
①②②①

口口口口
口口口口
口口口口 |----|
④口口④ |④---|
60
①⑤⑤① |①②-③|
②④④② |-④-⑤|
口⑥⑦口 |----|
口③③口 |⑥-⑦-|
61
②④④② |①-②-|
①口口① |-③-④|
⑤口口⑥ |---⑤|
口③③口 |--⑥-|
62
口⑤⑤口 |①-②-③-|
①口口口 |-④-⑤|
口②口口
③④④口

口口口口
口⑥⑦口
口⑧⑨口 |----|
口口口口 |⑥⑦⑧⑨|
63
口③③口 |①---|
口口口口 |-②-③|
口口口口
①②②①

口口口口
口口口口
口口口口 |----|
④口口④ |④---|
64
①口口① |①---|
③口口③ |②--③|
口口口口
口②②口

⑤口口⑤
口口口口
口④④口 |----|
口口口口 |④--⑤|
65
口④④口 |----|
口②②口 |①--②|
③口口③ |----|
①口口① |③--④|
66
口口口口 |----|
口口口口 |----|
口口口口 |----|
口口口口 |----|
67
口口口口 |----|
①口口① |----|
①口口① |----|
口口口口 |①---|
68
口口口口 |----|
口口口口 |----|
口口口口 |----|
口口口口 |----|
69
口口口口 |----|
口①①口 |----|
口①①口 |①---|
口口口口 |----|


不确定度: 0

最終更新:2012年11月11日 16:31