分けるな危険!モモモモモモーイズム
ARM×狐夢想 feat. 桃井はるこ

ADVANCED

Level: 8
BPM: 200
Notes: 572

1
口口口口 |----|
口口口口 |----|
口口口口 |----|
口口口口 |----|
2
口口 |①---|
口口 |----|
口口 |----|
口口 |----|
3
口口口口 |----|
口口口口 |----|
口口口口 |----|
口口口口 |----|
4
口口口口 |----|
口口口口 |----|
口口口口 |----|
口口口口 |----|
5
口口口口 |----|
口口口口 |----|
口口口口 |----|
口口口口 |----|
6
口口口口 |①---|
口口口口 |----|
口口口口 |----|
口口 |----|
7
口口口口 |①---|
口口口口 |②---|
口口口口 |③---|
①②③④ |④---|
8
口口口口 |①-②-|
⑦③④⑧ |③-④-|
⑤①②⑥ |⑤-⑥-|
口口口口 |⑦-⑧-|
9
口①①口 |①---|
口口口口 |②---|
③④⑤⑥ |③-④-|
口②②口 |⑤-⑥-|
10
①口口① |--①-|
口⑤⑥口 |--②-|
口③④口 |③-④-|
②口口② |⑤-⑥-|
11
口①①口 |①---|
口口口口 |②---|
③④⑤⑥ |③-④-|
口②②口 |⑤-⑥-|
12
口①②口 |--①-|
①⑤⑥② |-②--|
口③④口 |③-④-|
口口口口 |⑤-⑥-|
13
口口 |①---|
口口 |----|
口口 |----|
口口 |----|
14
口口 |①---|
口口口口 |----|
口口口口 |----|
口口口口 |----|
15
口①②口 |①---|
口③④口 |②---|
口口口口 |③---|
口口口口 |④---|
16
③口口③ |①---|
口口口口 |②---|
口①②口 |③---|
④口口④ |④---|
17
口口口口 |①-②-|
①②③④ |③-④-|
⑧⑦⑥⑤ |⑤-⑥-|
口口口口 |⑦-⑧-|
18
口②②口 |①---|
口⑤口口 |②---|
口③④口 |--③-|
口①①口 |④-⑤-|
19
①口口① |①---|
④口口⑤ |②---|
口④⑤口 |③-④-|
②③③② |--⑤-|
20
口口口口 |----|
口①①口 |----|
口口口口 |①---|
口②②口 |--②-|
21
①②③④ |--①-|
口⑦⑥⑤ |②-③-|
口口口口 |④-⑤-|
口口口口 |⑥-⑦-|
22
口口口口 |①---|
口口口口 |②---|
口①①口
口②②口

口口口③
口口口口
④④口口 |--③-|
口口口口 |--④-|
23
③③⑤⑤ |--①-|
口口①① |--②-|
口④④口 |③---|
口②②口 |④-⑤-|
24
口口口口 |--①-|
①②③④ |②-③-|
口⑤⑥口 |④-⑤-|
口口口口 |⑥---|
25
口口口口 |①-②-|
口口口口 |③-④-|
⑤⑥⑦⑧ |⑤-⑥-|
①②③④ |⑦-⑧-|
26
口②①口 |①-②-|
口④③⑥ |③-④-|
口口口口 |--⑤-|
口⑤⑤口 |--⑥-|
27
②②④③ |①---|
⑥⑤口口 |②---|
①①口口 |③-④-|
口口口口 |⑤-⑥-|
28
口口口口 |----|
口③口口 |----|
口②口口 |--①-|
口①口口 |②-③-|
29
口④口① |①-②-|
口口⑤② |--③-|
口⑥口口 |--④-|
口口③③ |⑤-⑥-|
30
口口口① |①-②-|
②⑤⑤口 |③-④-|
口⑤⑤③ |----|
④口口口 |--⑤-|
31
①⑤⑤② |--①-|
③口口④ |②-③-|
口口口口 |④---|
口口口口 |⑤---|
32
口口口口 |①---|
②③③口 |----|
②口③③ |②---|
②①①口 |③---|
33
口①②④ |①-②-|
③口口⑤ |--③-|
口⑥⑥口 |--④-|
口口口口 |⑤-⑥-|
34
口①②口 |--①-|
口③④口 |②-③-|
口口口口 |④---|
口口口口 |----|
35
④口口④ |①---|
②口口② |②-③-|
⑤③③⑤ |--④-|
口①①口 |--⑤-|
36
口①②口 |--①-|
口③④口 |②-③-|
口口口口 |④---|
口口口口 |----|
37
口口口口 |①-②-|
口口⑧⑦ |③-④-|
④⑤⑥口 |⑤-⑥-|
口③②① |⑦-⑧-|
38
②③④口 |①-②-|
口①口口 |③-④-|
口⑤⑤口 |⑤---|
口口口口 |----|
39
⑤⑥口口 |①---|
口④②口 |②-③-|
口口口口 |--④-|
③③①① |⑤-⑥-|
40
口口①② |①-②-|
口⑧⑦⑥ |③-④-|
口③④口 |⑤-⑥-|
口⑤口口 |⑦-⑧-|
41
③③①① |①---|
口口口口 |②---|
④④②② |③---|
口口口口 |④---|
42
口口口口 |①-②-|
②③④口 |③-④-|
⑧⑦⑥⑤ |⑤-⑥-|
口①①口 |⑦-⑧-|
43
口④③② |①-②-|
⑤⑥⑦⑧ |③-④-|
口口口口 |⑤-⑥-|
口①①口 |⑦-⑧-|
44
口口口口 |①-②-|
④⑤口⑧ |③-④-|
②③⑦⑥ |⑤-⑥-|
口①①口 |⑦-⑧-|
45
④①①⑤ |①--②|
⑥③③⑥ |--③-|
口④⑤口 |④--⑤|
口②②口 |--⑥-|
46
口①①口 |①--②|
口③④口 |--③-|
⑤口口⑤ |④---|
口②②口 |⑤---|
47
⑤②①④ |①---②-|
②⑤④① |--③---|
口③③口 |④---⑤-|
口⑥⑥口 |--⑥---|
48
口口口口 |①---|
口口口口 |----|
①口口① |----|
口口口口 |----|
49
口口口口 |①---|
口④③口 |②---|
口②①口 |③---|
口口口口 |④---|
50
口口口① |①---|
③口口口 |--②-|
口口②口 |----|
口口口口 |③---|
51
口口口口 |①---|
口③④口 |②---|
口①②口 |③---|
口口口口 |④---|
52
①口口口 |①---|
口口口③ |--②-|
口②口口 |----|
口口口口 |③---|
53
口①口口 |①---|
口②口口 |②---|
口③口口 |③---|
口④口口 |④---|
54
口口①口 |①---|
口口②口 |②---|
口口③口 |③---|
口口④口 |④---|
55
口口口口 |①---|
口口口口 |----|
①口口① |----|
口口口口 |----|
56
口口 |①---|
口口 |----|
口口 |----|
口口 |----|
57
口口 |①---|
口口口口 |----|
口口口口 |----|
口口口口 |----|
58
口口口口 |①---|
①口口② |----|
口口口口 |②---|
①口口② |----|
59
口口口口 |①-②-|
④口⑧⑦ |③-④-|
②③⑥⑤ |⑤-⑥-|
口①①口 |⑦-⑧-|
60
⑦②③⑥ |①-②-|
口④口⑧ |③-④-|
①口口⑤ |⑤-⑥-|
口①⑤口 |⑦-⑧-|
61
⑥②口⑤ |①-②-|
⑧④③⑦ |③-④-|
口①①口 |⑤-⑥-|
口口口口 |⑦-⑧-|
62
口①①口 |①---|
口口口口 |----|
③口口③ |②---|
口②②口 |③---|
63
①口②① |①-②-|
口③④口 |③-④-|
口⑤⑥口 |⑤-⑥-|
口⑦⑧口 |⑦-⑧-|
64
口⑤①口 |①-②-|
⑤②③① |③-④-|
⑦④口⑥ |⑤-⑥-|
口口口⑧ |⑦-⑧-|
65
①口②① |①-②-|
口③④口 |③-④-|
口⑤⑥口 |⑤-⑥-|
口⑦⑧口 |⑦-⑧-|
66
口①①口 |①---|
口口口口 |----|
③口口③ |②---|
②口口② |③---|
67
①口②① |①-②-|
口③④口 |③-④-|
口⑤⑥口 |⑤-⑥-|
口⑦⑧口 |⑦-⑧-|
68
①②③① |①-②-|
⑤④口⑤ |③-④-|
口⑥⑦口 |⑤-⑥-|
口⑧口口 |⑦-⑧-|
69
口口②口 |①-②-|
口③④口 |③-④-|
口⑤⑥口 |⑤-⑥-|
①⑦⑧① |⑦-⑧-|
70
①口口① |①---|
口②②口 |----|
①③③① |②---|
口口口口 |③---|
71
口口口② |①---|
口口口口 |----|
口口口口 |----|
②①①口 |②---|
72
①口口口 |①---|
③口口③ |--②-|
口口口口 |----|
口②②① |③---|
73
⑧口口④ |①-②-|
口⑦③口 |③-④-|
口②⑥口 |⑤-⑥-|
①口口⑤ |⑦-⑧-|
74
口口口口 |①-②-|
①口③② |--③-|
①③口② |④---|
④④⑤⑤ |⑤---|
75
①②口① |①-②-|
口④③口 |③-④-|
口⑥⑤口 |⑤-⑥-|
口⑧⑦口 |⑦-⑧-|
76
①口②① |①-②-|
⑤③④⑤ |③-④-|
口口⑥口 |⑤-⑥-|
口⑦⑧口 |⑦-⑧-|
77
①②口① |①-②-|
口④③口 |③-④-|
口⑥⑤口 |⑤-⑥-|
口⑧⑦口 |⑦-⑧-|
78
④口①④ |--①-|
⑥②③⑥ |②-③-|
口口⑤口 |④-⑤-|
口口⑦口 |⑥-⑦-|
79
口口②口 |①-②-|
口③④口 |③-④-|
①⑤⑥① |⑤-⑥-|
口⑦⑧口 |⑦-⑧-|
80
①②口① |①-②-|
⑤④③⑤ |③-④-|
口⑥口口 |⑤-⑥-|
口⑧⑦口 |⑦-⑧-|
81
①口②① |①-②-|
口③④口 |③-④-|
口⑤⑥口 |⑤-⑥-|
口⑦⑧口 |⑦-⑧-|
82
①口口① |①---|
口口口口 |----|
口②③口 |②---|
②口口③ |③---|
83
口①口口 |①---|
①口口口 |----|
口口口① |----|
口口①口 |----|
84
口口口口 |①---|
口①①口 |----|
口②②口 |②---|
口口口口 |----|
85
口口口口 |①---|
口口口口 |----|
口口口口 |----|
口①①口 |----|
86
①③②① |①---|
口口口口 |----|
口口口口 |②---|
口②③口 |③---|
87
口口 |①---|
口口 |----|
口口 |----|
口口 |----|
88
口口口口 |----|
口口口口 |----|
口口口口 |----|
口口口口 |----|
89
口口口 |①---|
口①口口 |----|
口口①口 |----|
口口口 |----|
90
口①②口 |①---|
口口口口 |----|
口口口口 |②---|
口②①口 |----|
91
口口 |①---|
口口 |----|
口口 |----|
口口 |----|
92
口口口口 |----|
口口口口 |----|
口口口口 |----|
口口口口 |----|
93
口口口 |①---|
口口①口 |----|
口①口口 |----|
口口口 |----|
94
口口口口 |①---|
口①①口 |----|
口①①口 |----|
口口口口 |----|

不確定度: 0

最終更新:2017年08月13日 13:53