それは花火のような恋
夏色バーニングラブ☆Prim

BASIC

Level: 4
BPM: 182
Notes: 232

1
口口口口 |----|
口口口口 |----|
口口口口 |----|
口口口口 |----|
2
口口口口 |①---|
口①①口 |----|
口①①口 |----|
口口口口 |----|
3
口口口口 |----|
口口口口 |----|
口口口口 |----|
口口口口 |----|
4
口口口口 |①---|
口①①口 |----|
口①①口 |----|
口口口口 |----|
5
口口口口 |----|
口口口口 |----|
口口口口 |----|
口口口口 |----|
6
①②口口 |①---|
口口口口 |----|
口口口口 |②---|
口口口口 |----|
7
口口①② |①---|
口口口口 |----|
口口口口 |②---|
口口口口 |----|
8
口口口口 |①---|
口口②① |----|
口口口口 |②---|
口口口口 |----|
9
口口口口 |①---|
②①口口 |----|
口口口口 |②---|
口口口口 |----|
10
口口口口 |①---|
口口口口 |----|
①②口口 |②---|
口口口口 |----|
11
口口口口 |①---|
口口口口 |----|
口口①② |②---|
口口口口 |----|
12
口口口口 |①---|
口口口口 |----|
口口口口 |②---|
口①②口 |----|
13
口口口口 |①---|
口口口口 |----|
口①②口 |②---|
口口口口 |----|
14
①口口① |①---|
口口口口 |----|
口口口口 |----|
口口口口 |----|
15
口口口口 |----|
口口口口 |----|
口口口口 |----|
口口口口 |----|
16
口口口口 |①---|
口口口口 |----|
口口口口 |②---|
口①②口 |----|
17
口口口口 |①---|
口口口口 |----|
口①②口 |②---|
口口口口 |----|
18
口①①口 |①---|
口口口口 |----|
口口口口 |----|
口口口口 |----|
19
口口口口 |----|
口口口口 |----|
口口口口 |----|
口口口口 |----|
20
口口口口 |①---|
口口口口 |----|
口口口口 |②---|
口①②口 |----|
21
口口口口 |①---|
口口口口 |----|
口①②口 |②---|
口口口口 |----|
22
①口口① |①---|
口口口口 |----|
口口口口 |----|
口口口口 |----|
23
口口口口 |----|
口口口口 |----|
口口口口 |----|
口口口口 |----|
24
口口口口 |①---|
口口口口 |----|
口口口口 |②---|
口①②口 |----|
25
口口口口 |①---|
口口口口 |----|
口①②口 |②---|
口口口口 |----|
26
口①①口 |①---|
口口口口 |----|
口口口口 |----|
口口口口 |----|
27
口口口口 |----|
口口口口 |----|
口口口口 |----|
口口口口 |----|
28
口口口口 |①---|
口①①口 |----|
口②②口 |②---|
口口口口 |----|
29
①口口② |①---|
口口口口 |----|
口口口口 |②---|
口口口口 |----|
30
口口口口 |①---|
口①①口 |----|
口②②口 |②---|
口口口口 |----|
31
①口口② |①---|
口口口口 |----|
口口口口 |②---|
口口口口 |----|
32
口①②口 |①---|
口口口口 |----|
口口口口 |②---|
口口口口 |----|
33
口口口口 |①---|
口①②口 |----|
口口口口 |②---|
口口口口 |----|
34
口口口口 |①---|
口口口口 |----|
口①②口 |②---|
口口口口 |----|
35
口口口口 |①---|
口口口口 |----|
口口口口 |②---|
口①②口 |----|
36
口口口口 |①---|
口①②口 |----|
口口口口 |②---|
口口口口 |----|
37
口口口口 |①---|
①口口② |----|
口口口口 |②---|
口口口口 |----|
38
口口口口 |①---|
口口口口 |----|
口①②口 |②---|
口口口口 |----|
39
口口口口 |①---|
口口口口 |----|
①口口② |②---|
口口口口 |----|
40
①口口① |①---|
口口口口 |----|
口口口口 |----|
口口口口 |----|
41
口口口口 |①---|
①口口① |----|
口口口口 |----|
口口口口 |----|
42
口口口口 |①---|
口口口口 |----|
①口口① |----|
口口口口 |----|
43
口口口口 |①---|
口②②口 |----|
口口口口 |②---|
口①①口 |----|
44
①②③④ |①---|
口口口口 |②---|
口口口口 |③---|
口口口口 |④---|
45
口口口口 |①---|
④③②① |②---|
口口口口 |③---|
口口口口 |④---|
46
口②②口 |①---|
口口口口 |----|
口①①口 |②---|
口口口口 |----|
47
口口口口 |----|
口口口口 |----|
口口口口 |----|
口口口口 |----|
48
口①②口 |①---|
口③④口 |②---|
口口口口 |③---|
口口口口 |④---|
49
口口口口 |①---|
口口口口 |②---|
口①②口 |③---|
口③④口 |④---|
50
口口口口 |①---|
③口口④ |②---|
①口口② |③---|
口口口口 |④---|
51
口①①口 |①---|
口口口口 |----|
口口口口 |----|
口口口口 |----|
52
①②③④ |①---|
口口口口 |②---|
口口口口 |③---|
口口口口 |④---|
53
口口口口 |①---|
④③②① |②---|
口口口口 |③---|
口口口口 |④---|
54
口口口口 |①---|
口②②口 |----|
口①①口 |②---|
口口口口 |----|
55
口①①口 |①---|
口口口口 |----|
口口口口 |----|
口口口口 |----|
56
口①②口 |①---|
口③④口 |②---|
口口口口 |③---|
口口口口 |④---|
57
①口口① |①---|
②口口② |----|
口口口口 |②---|
口口口口 |----|
58
口口口口 |①---|
口口口口 |----|
①口口① |②---|
②口口② |----|
59
口口口口 |①---|
口①①口 |----|
口口口口 |----|
口口口口 |----|
60
口口口口 |①---|
口①②口 |----|
口口口口 |②---|
口口口口 |----|
61
口口口口 |①---|
①口口② |----|
口口口口 |②---|
口口口口 |----|
62
口口口口 |①---|
口口口口 |----|
口①②口 |②---|
口口口口 |----|
63
口口口口 |①---|
口口口口 |----|
①口口② |②---|
口口口口 |----|
64
口①①口 |①---|
口口口口 |----|
口口口口 |----|
口口口口 |----|
65
口口口口 |①---|
口①①口 |----|
口口口口 |----|
口口口口 |----|
66
口口口口 |①---|
口口口口 |----|
口①①口 |----|
口口口口 |----|
67
口口口口 |①---|
口口口口 |----|
口口口口 |----|
口①①口 |----|
68
口口口口 |①---|
口①②口 |----|
口口口口 |②---|
口口口口 |----|
69
口口口口 |①---|
①口口② |----|
口口口口 |②---|
口口口口 |----|
70
口口口口 |①---|
口口口口 |----|
口①②口 |②---|
口口口口 |----|
71
口口口口 |①---|
口口口口 |----|
①口口② |②---|
口口口口 |----|
72
①口口① |①---|
口口口口 |----|
口口口口 |----|
口口口口 |----|
73
口口口口 |①---|
①口口① |----|
口口口口 |----|
口口口口 |----|
74
口口口口 |①---|
口②②口 |----|
口口口口 |②---|
口①①口 |----|
75
①口口① |①---|
口口口口 |----|
口口口口 |----|
口口口口 |----|
76
①②③④ |①---|
口口口口 |②---|
口口口口 |③---|
口口口口 |④---|
77
口口口口 |①---|
④③②① |②---|
口口口口 |③---|
口口口口 |④---|
78
口②②口 |①---|
口口口口 |----|
口①①口 |②---|
口口口口 |----|
79
口口口口 |----|
口口口口 |----|
口口口口 |----|
口口口口 |----|
80
口①②口 |①---|
口③④口 |②---|
口口口口 |③---|
口口口口 |④---|
81
口口口口 |①---|
口口口口 |②---|
口①②口 |③---|
口③④口 |④---|
82
口口口口 |①---|
③口口④ |②---|
①口口② |③---|
口口口口 |④---|
83
口①①口 |①---|
口口口口 |----|
口口口口 |----|
口口口口 |----|
84
①②③④ |①---|
口口口口 |②---|
口口口口 |③---|
口口口口 |④---|
85
口口口口 |①---|
④③②① |②---|
口口口口 |③---|
口口口口 |④---|
86
口口口口 |①---|
口②②口 |----|
口①①口 |②---|
口口口口 |----|
87
口①①口 |①---|
口口口口 |----|
口口口口 |----|
口口口口 |----|
88
口①②口 |①---|
口③④口 |②---|
口口口口 |③---|
口口口口 |④---|
89
①口口① |①---|
②口口② |----|
口口口口 |②---|
口口口口 |----|
90
口口口口 |①---|
口口口口 |----|
①口口① |②---|
②口口② |----|
91
口口口口 |①---|
口①①口 |----|
口口口口 |----|
口口口口 |----|
92
口口口口 |①---|
口①①口 |----|
口口口口 |----|
口口口口 |----|
93
口口口口 |①---|
口口口口 |----|
口①①口 |----|
口口口口 |----|
94
口口口口 |----|
①①①① |①---|
口口口口 |----|
口口口口 |----|

不確定度: 0

最終更新:2017年08月13日 13:53