ドーナツホール
ハチ

ADVANCED

Level: 6
BPM: 252
Notes: 479

1
口口口口 |----|
口口口口 |----|
口口口口 |----|
口口口口 |----|
2
口口口口 |----|
口口口口 |----|
口口口口 |----|
口口口口 |----|
3
口①①口 |①---|
口②②口 |----|
口口口口 |②---|
口口口口 |----|
4
②口口口 |①---|
口口口口 |----|
口①①口 |②---|
口口口口 |----|
5
口①①口 |①---|
口②②口 |----|
口口口口 |②---|
口口口口 |----|
6
口口口② |①---|
口口口口 |----|
口①①口 |②---|
口口口口 |----|
7
口①①口 |①---|
口②②口 |----|
口口口口 |②---|
口口口口 |----|
8
②口口口 |①---|
口口口口 |----|
口①①口 |②---|
口口口口 |----|
9
口①①口 |①---|
口②②口 |----|
口口口口 |②---|
口口口口 |----|
10
口口口② |①---|
口口口口 |----|
口①①口 |②---|
口口口口 |----|
11
口①②口 |①---|
口③④口 |②---|
口口口口 |③---|
口口口口 |④---|
12
③口口口 |①---|
口口口口 |②---|
口①②口 |----|
口口口口 |③---|
13
口口口① |①---|
②口口③ |②---|
④口口口 |③---|
口口口口 |④---|
14
口口口口 |①---|
口口口口 |②---|
口口口① |----|
口②②口 |----|
15
口①②口 |①---|
口③④口 |②---|
口口口口 |③---|
口口口口 |④---|
16
③口口口 |①---|
口口口口 |②---|
口①②口 |----|
口口口口 |③---|
17
口口口① |①---|
②口口③ |②---|
④口口口 |③---|
口口口口 |④---|
18
口口口口 |①---|
口口口口 |②---|
口口口① |----|
口②②口 |----|
19
①口口口 |①---|
②口口口 |②---|
③口口④ |③---|
口口口口 |④---|
20
口口口② |①---|
口③口① |②---|
口④口口 |③---|
口口口口 |④---|
21
口口口口 |----|
①口口口 |①---|
②口口口 |②---|
③口口口 |③---|
22
口口口口 |①---|
口口口③ |②---|
口口口② |③---|
口口口① |----|
23
口①②口 |①---|
口③④口 |②---|
口口口口 |③---|
口口口口 |④---|
24
③口口口 |①---|
口口口口 |②---|
口①②口 |----|
口口口口 |③---|
25
口口口① |①---|
②口口③ |②---|
④口口口 |③---|
口口口口 |④---|
26
口口口口 |①---|
口口口口 |②---|
口口口① |----|
口②②口 |----|
27
①③④② |①---|
口口口口 |②---|
口口口口 |③---|
口口口口 |④---|
28
口口口口 |①---|
③①②口 |②---|
口口口口 |----|
口口口口 |③---|
29
口口口口 |①---|
口口口③ |②---|
口①④口 |③---|
口口②口 |④---|
30
口口口口 |①---|
口②②口 |②---|
口口口口 |----|
口①口口 |----|
31
①③④② |①---|
口口口口 |②---|
口口口口 |③---|
口口口口 |④---|
32
口口口口 |①---|
③①②口 |②---|
口口口口 |----|
口口口口 |③---|
33
口口口口 |①---|
口口口③ |②---|
口①④口 |③---|
口口②口 |④---|
34
口口口口 |①---|
口②②口 |②---|
口口口口 |----|
口①口口 |----|
35
①口口口 |①---|
②口口口 |②---|
③口口④ |③---|
口口口口 |④---|
36
口口口② |①---|
口③口① |②---|
口④口口 |③---|
口口口口 |④---|
37
口口口口 |----|
①口口口 |①---|
②口口口 |②---|
③口口口 |③---|
38
口口口口 |①---|
口口口③ |②---|
口口口② |③---|
口口口① |----|
39
①③④② |①---|
口口口口 |②---|
口口口口 |③---|
口口口口 |④---|
40
口口口口 |①---|
③①②口 |②---|
口口口口 |----|
口口口口 |③---|
41
口口口口 |①---|
口口口③ |②---|
口①④口 |③---|
口口②口 |④---|
42
口口口口 |①---|
口②②口 |②---|
口口口口 |----|
口①口口 |----|
43
口③口口 |----|
口口②口 |①---|
口①口口 |②---|
口口口口 |③---|
44
口口①口 |----|
口②口口 |①---|
口口③口 |②---|
口口口口 |③---|
45
口③口口 |----|
口口②口 |①---|
口①口口 |②---|
口口口口 |③---|
46
口口口① |①---|
②口口口 |②---|
口口口③ |③---|
④口口口 |④---|
47
口口口口 |----|
口口口口 |①---|
口①②口 |②---|
口③口口 |③---|
48
④口口口 |①---|
③口口口 |②---|
②口口口 |③---|
口口①口 |④---|
49
口③口① |①---|
④口②口 |②---|
口口口口 |③---|
口口口口 |④---|
50
口口口口 |①---|
口口口口 |----|
口①①口 |②---|
口②②口 |----|
51
口口①口 |----|
口②口口 |①---|
口口③口 |②---|
口口口口 |③---|
52
口③口口 |----|
口口②口 |①---|
口①口口 |②---|
口口口口 |③---|
53
口口①口 |----|
口②口口 |①---|
口口③口 |②---|
口口口口 |③---|
54
口口口④ |①---|
③口口口 |②---|
口口口② |③---|
口①口口 |④---|
55
①口③口 |----|
口②口口 |①---|
口口口口 |②---|
口口口口 |③---|
56
口口口口 |①---|
口口②① |②---|
口口③口 |③---|
口口④口 |④---|
57
口④口口 |①---|
口③口口 |②---|
口②口口 |③---|
口①口口 |④---|
58
口口口① |①---|
②口口口 |②---|
口口口③ |③---|
口口口口 |----|
59
口口口口 |①---|
口①①口 |--②-|
口③③口 |--③-|
口②②口 |----|
60
①口口① |①---|
②④口② |②---|
③口口③ |③---|
口口口口 |④---|
61
口口④④ |①---|
口口③③ |②---|
口口①口 |③---|
口②口口 |④---|
62
①①口口 |①---|
②②口口 |②---|
口口口口 |----|
口③口口 |③---|
63
④④④④ |①---|
口口口口 |②---|
口②③口 |③---|
口口①口 |④---|
64
口口口口 |----|
③口口口 |①---|
①口口② |②---|
口口口口 |③---|
65
②口⑤⑤ |①---|
口口口① |②---|
口③④口 |③-④-|
口口口口 |--⑤-|
66
④④口口 |----|
口②③口 |①---|
口口口口 |②-③-|
口口①① |--④-|
67
口口⑤⑤ |----|
口口口口 |①-②-|
③①②④ |③-④-|
口口口口 |--⑤-|
68
①①口口 |----|
口口口口 |①---|
口口口口 |----|
口口口口 |----|
69
口口口口 |①---|
口①口口 |②---|
口口②口 |③---|
口③④口 |④---|
70
③③口口 |①---|
口口②口 |②---|
口①口口 |----|
口口口口 |③---|
71
口口②② |①---|
①①③③ |②---|
口口口口 |③---|
④④④④ |④---|
72
①口口口 |----|
②口口口 |①---|
③口口口 |②---|
口口口口 |③---|
73
⑤⑤口① |①---|
口口口② |②---|
口③④口 |③-④-|
口口口口 |--⑤-|
74
口口口口 |----|
口口口② |①---|
口③④口 |②---|
①①口口 |③-④-|
75
①口④④ |----|
口②③口 |①---|
口口口口 |②-③-|
口口口口 |--④-|
76
②口口口 |----|
口口口口 |①---|
口口口口 |----|
口口①① |②---|
77
⑤⑤口口 |①---|
①③④口 |②---|
②口口口 |③-④-|
口口口口 |--⑤-|
78
口口口② |----|
口口口口 |①---|
口③④口 |②---|
①①口口 |③-④-|
79
①④④口 |----|
口②③口 |①---|
口口口口 |②③-④|
口口口口
80
口口口口 |----|
口口口口 |----|
口口口口 |----|
口口口口 |----|
81
口口口① |①---|
口口口② |----|
口口口口 |②---|
口口口口 |----|
82
口口口口 |①---|
口口口口 |----|
口口口① |----|
口口口口 |----|
83
口口口口 |①---|
①口口口 |----|
②口口口 |②---|
口口口口 |----|
84
①口口口 |----|
口口口口 |----|
口口口口 |①---|
口口口口 |----|
85
口口②口 |①---|
口口口口 |----|
口①口口 |②---|
口口口口 |----|
86
口口口② |①---|
口口口口 |----|
口口口① |②---|
口口口口 |----|
87
口②口口 |①---|
口口口口 |----|
口口①口 |②---|
口口口口 |----|
88
口口口口 |①---|
口口口口 |----|
①口口口 |----|
口口口口 |----|
89
口口口① |①---|
口口口② |----|
口口口口 |②---|
口口口口 |----|
90
口口口口 |①---|
口口口口 |----|
口口口① |----|
口口口口 |----|
91
口口口口 |①---|
①口口口 |----|
②口口口 |②---|
口口口口 |----|
92
口口口① |----|
口口口口 |----|
口口口口 |①---|
口口口口 |----|
93
口②口口 |①---|
口口口口 |----|
口口①口 |②---|
口口口口 |----|
94
②口口口 |①---|
口口口口 |----|
①口口口 |②---|
口口口口 |----|
95
口口②口 |①-②-|
口口口口
口①口口
口口口口
96
②口口② |②---|
口③口口 |③---|
口口口口
口口口口
97
口口④④ |①---|
口口③③ |②---|
口口①口 |③---|
口②口口 |④---|
98
①①口口 |①---|
②②口口 |②---|
口口口口 |----|
口③口口 |③---|
99
④④④④ |①---|
口口口口 |②---|
口②③口 |③---|
口口①口 |④---|
100
口口口口 |----|
③口口口 |①---|
①口口② |②---|
口口口口 |③---|
101
②口⑤⑤ |①---|
口口口① |②---|
口③④口 |③-④-|
口口口口 |--⑤-|
102
④④口口 |----|
口②③口 |①---|
口口口口 |②-③-|
口口①① |--④-|
103
口口⑤⑤ |----|
口口口口 |①-②-|
③①②④ |③-④-|
口口口口 |--⑤-|
104
①①口口 |----|
口口口口 |①---|
口口口口 |----|
口口口口 |----|
105
口口口口 |①---|
口①口口 |②---|
口口②口 |③---|
口③④口 |④---|
106
③③口口 |①---|
口口②口 |②---|
口①口口 |----|
口口口口 |③---|
107
口口①① |①---|
②②②② |----|
口口口口 |②---|
口口口口 |----|
108
口口口口 |①---|
口口口口 |----|
①①①① |②---|
②②②② |----|
109
口口口口 |①---|
①③④② |②---|
口口口口 |③---|
口口口口 |④---|
110
口口口口 |①---|
口口口口 |②---|
①③④② |③---|
口口口口 |④---|
111
口口口口 |①---|
①③④② |②---|
口口口口 |③---|
口口口口 |④---|
112
口口口④ |①---|
口口口③ |②---|
①口口② |③---|
口口口口 |④---|
113
⑤⑤口口 |①---|
①③④口 |②---|
②口口口 |③-④-|
口口口口 |--⑤-|
114
口口④④ |----|
口口口口 |①---|
口②③口 |②-③-|
口①口口 |--④-|
115
④④口口 |----|
口②③口 |①---|
口口口口 |②-③-|
口口①口 |--④-|
116
口口①① |----|
②口口口 |①---|
口口口口 |----|
口口口口 |②---|
117
口口⑤⑤ |①---|
口口口口 |②---|
①③④口 |③-④-|
②口口口 |--⑤-|
118
④④口口 |----|
口②③口 |①---|
口口口口 |②-③-|
口口①口 |--④-|
119
口口④口 |----|
口口口口 |①---|
口②③口 |②-③-|
口①口口 |--④-|
120
口口口② |----|
口口口口 |①---|
口口口口 |----|
口口①口 |--②-|
121
口④口口 |----|
口口口口 |①---|
口②③口 |②-③-|
口口口① |--④-|
122
②口口口 |----|
口口口口 |①---|
口口口口 |----|
口①口口 |--②-|
123
口口④口 |----|
口口口口 |①---|
口②③口 |②-③-|
①口口口 |--④-|
124
②口口口 |----|
口口口口 |①---|
口口口口 |----|
口口①口 |②---|
125
⑤口口⑤ |①---|
①③④口 |②---|
②口口口 |③-④-|
口口口口 |--⑤-|
126
口口口口 |----|
口口口口 |①---|
②②②② |--②-|
①口口① |----|

不確定度: 0

最終更新:2017年08月13日 13:48