NANIMONO(feat.米津玄師)
中田ヤスタカ

BASIC

Level: 2
BPM: 128
Notes: 137

1
口口口口 |----|
口口口口 |----|
口口口口 |----|
口口口口 |----|
2
口口口口 |----|
口口口口 |----|
口口口口 |----|
口口口口 |----|
3
口口口口 |----|
口口口口 |----|
口口口口 |----|
口口口口 |----|
4
口口口口 |----|
口口口口 |----|
口口口口 |----|
口口口口 |----|
5
口口口口 |----|
口口口口 |----|
口口口口 |----|
口口口口 |----|
6
口口口口 |①---|
①口口口 |----|
口口口口 |----|
口口口口 |----|
7
口口口口 |①---|
口口口① |----|
口口口口 |----|
口口口口 |----|
8
口口口口 |①---|
①口口口 |----|
口口口口 |----|
口口口口 |----|
9
口口口口 |①---|
口口口① |----|
口口口口 |----|
口口口口 |----|
10
①②口口 |①---|
口口口口 |----|
口口口口 |②---|
口口口口 |----|
11
口口①② |①---|
口口口口 |----|
口口口口 |②---|
口口口口 |----|
12
口口口口 |①---|
口口②① |----|
口口口口 |②---|
口口口口 |----|
13
口口口口 |①---|
②①口口 |----|
口口口口 |②---|
口口口口 |----|
14
口口口口 |①---|
口口口口 |----|
①②口口 |②---|
口口口口 |----|
15
口口口口 |①---|
口口口口 |----|
口口①② |②---|
口口口口 |----|
16
口口口口 |①---|
口口口口 |----|
口口口口 |②---|
口口②① |----|
17
口口口口 |①---|
口口口口 |----|
口口口口 |②---|
②①口口 |----|
18
口④口口 |①---|
口③口口 |②---|
口②口口 |③---|
口①口口 |④---|
19
口③②① |①---|
口口口口 |②---|
口口口口 |③---|
口口口口 |----|
20
口口①口 |①---|
口口②口 |②---|
口口③口 |③---|
口口④口 |④---|
21
口口口口 |①---|
口口口口 |②---|
口口口口 |③---|
①②③口 |----|
22
口④口口 |①---|
口③口口 |②---|
口②口口 |③---|
口①口口 |④---|
23
口③②① |①---|
口口口口 |②---|
口口口口 |③---|
口口口口 |----|
24
口口①口 |①---|
口口②口 |②---|
口口③口 |③---|
口口④口 |④---|
25
口口口口 |①---|
口口口口 |②---|
口口口口 |③---|
①②③④ |④---|
26
②口口② |①---|
口口口口 |--②-|
口①①口 |----|
口口口口 |----|
27
口②②口 |①---|
口口口口 |--②-|
①口口① |----|
口口口口 |----|
28
②口口② |①---|
口口口口 |--②-|
口①①口 |----|
口口口口 |----|
29
口②②口 |①---|
口口口口 |--②-|
①口口① |----|
口口口口 |----|
30
②口口② |①---|
口口口口 |--②-|
口①①口 |----|
口口口口 |----|
31
口②②口 |①---|
口口口口 |--②-|
①口口① |----|
口口口口 |----|
32
②口口② |①---|
口口口口 |--②-|
口①①口 |----|
口口口口 |----|
33
口②②口 |①---|
口口口口 |--②-|
①口口① |----|
口口口口 |----|
34
口口口口 |①---|
①①①① |----|
口口口口 |----|
口口口口 |----|
35
①口口口 |①---|
口口口口 |----|
口口口口 |----|
口口口口 |----|
36
口口口口 |①---|
①口口口 |----|
口口口口 |----|
口口口口 |----|
37
口口口口 |①---|
口口口口 |----|
①口口口 |----|
口口口口 |----|
38
口口口① |①---|
口口口口 |----|
口口口口 |----|
口口口口 |----|
39
口口口口 |①---|
口口口① |----|
口口口口 |----|
口口口口 |----|
40
口口口口 |①---|
口口口口 |----|
口口口① |----|
口口口口 |----|
41
口口口口 |①---|
口口口口 |----|
口口口口 |----|
口口口① |----|
42
口口口口 |①---|
口口口口 |----|
口口口口 |②---|
口口②① |----|
43
口口口口 |①---|
口口口口 |----|
口口口口 |②---|
②①口口 |----|
44
口口口口 |①---|
口口口口 |----|
①②口口 |②---|
口口口口 |----|
45
口口口口 |①---|
口口口口 |----|
口口①② |②---|
口口口口 |----|
46
口口口口 |①---|
口口②① |----|
口口口口 |②---|
口口口口 |----|
47
口口口口 |①---|
②①口口 |----|
口口口口 |②---|
口口口口 |----|
48
①②口口 |①---|
口口口口 |----|
口口口口 |②---|
口口口口 |----|
49
口口①② |①---|
口口口口 |----|
口口口口 |②---|
口口口口 |----|
50
口口①口 |①---|
口口②口 |②---|
口口③口 |③---|
口口④口 |④---|
51
口口口口 |①---|
口口口口 |②---|
口口口口 |③---|
①②③口 |----|
52
口④口口 |①---|
口③口口 |②---|
口②口口 |③---|
口①口口 |④---|
53
口③②① |①---|
口口口口 |②---|
口口口口 |③---|
口口口口 |----|
54
口口①口 |①---|
口口②口 |②---|
口口③口 |③---|
口口④口 |④---|
55
口口口口 |①---|
口口口口 |②---|
口口口口 |③---|
①②③口 |----|
56
口④口口 |①---|
口③口口 |②---|
口②口口 |③---|
口①口口 |④---|
57
④③②① |①---|
口口口口 |②---|
口口口口 |③---|
口口口口 |④---|

不確定度: 0

最終更新:2017年08月13日 13:31