NANIMONO(feat.米津玄師)
中田ヤスタカ

ADVANCED

Level: 4
BPM: 128
Notes: 253

1
口口口口 |----|
口口口口 |----|
口口口口 |----|
口口口口 |----|
2
①口口① |①---|
口口口口 |----|
口口口口 |----|
口口口口 |----|
3
口口口口 |①---|
①口口① |----|
口口口口 |----|
口口口口 |----|
4
口口口口 |①---|
口口口口 |----|
①口口① |----|
口口口口 |----|
5
口口口口 |①---|
口口口口 |----|
口口口口 |----|
①口口① |----|
6
口口口口 |①---|
口②②口 |--②-|
口口口口 |----|
口①①口 |----|
7
口口口口 |①---|
口②②口 |--②-|
口口口口 |----|
口①①口 |----|
8
口口口口 |①---|
口②②口 |--②-|
口口口口 |----|
口①①口 |----|
9
口口口口 |①---|
口②②口 |--②-|
口口口口 |----|
口①①口 |----|
10
口口口口 |①---|
②口口口 |----|
口口口口 |②---|
口①口口 |----|
11
口口口口 |①---|
口口口① |②-③-|
④③②口 |④---|
口口口口 |----|
12
口口口口 |①---|
口口口② |----|
口口口口 |②---|
口口①口 |----|
13
口口口口 |①-②-|
口口口④ |③---|
①②③口 |④---|
口口口口 |----|
14
口口口口 |①---|
②口口口 |----|
口口口口 |②---|
口①口口 |----|
15
口口口口 |①---|
口口口① |②-③-|
④③②口 |④---|
口口⑤口 |⑤---|
16
口口口口 |①---|
口口口② |--②-|
口口①口
口口口口

口口口口
口口口口
③④⑤口 |--③-|
口口口口 |④-⑤-|
17
口口口口 |--①-|
口口口口 |----|
口口口口 |----|
口①①口 |----|
18
②口口口 |①---|
口口口口 |②---|
口①①口
口口口口

口口口口
口口④③
⑥⑤口口 |③-④-|
口口口口 |⑤-⑥-|
19
②②①① |①---|
口③③口 |②---|
口口口口 |③---|
口口口口 |----|
20
口口口② |①---|
口口口口 |②---|
口①①口
口口口口

口口口口
③④口口
口口⑤⑥ |③-④-|
口口口口 |⑤-⑥-|
21
①①②② |①---|
口③③口 |②---|
口④④口 |③---|
口口口口 |④---|
22
②口口① |①---|
口口④③ |②---|
⑥⑤口口 |③-④-|
口口口口 |⑤-⑥-|
23
②②①① |①---|
口③③口 |②---|
口口口口 |③---|
口口口口 |----|
24
①②③④ |①-②-|
⑧⑦⑥⑤ |③-④-|
口口口口 |⑤-⑥-|
口口口口 |⑦-⑧-|
25
口①①口 |①---|
③口口③ |②---|
口②②口 |③---|
④口口④ |④---|
26
④口口口 |①--②|
⑤③口口 |--③-|
口口②口 |----|
口①口口 |④-⑤-|
27
口口口④ |①--②|
口口③⑤ |--③-|
口②口口 |----|
口口①口 |④-⑤-|
28
④口口口 |①--②|
⑤③口口 |--③-|
口口②口 |----|
口①口口 |④-⑤-|
29
⑥⑤④口 |①--②|
口口③口 |--③-|
口②口口 |--④-|
口口①口 |⑤-⑥-|
30
④口口口 |①--②|
⑤口③口 |--③-|
口②口口 |----|
口口①口 |④-⑤-|
31
口口口④ |①--②|
口口③⑤ |--③-|
口②口口 |----|
口口①口 |④-⑤-|
32
④口口口 |①--②|
⑤③口口 |--③-|
口口②口 |----|
口①口口 |④-⑤-|
33
口④⑤⑥ |①--②|
口口③口 |--③-|
口②口口 |--④-|
口口①口 |⑤-⑥-|
34
口口口口 |①---|
口口口口 |----|
口①①口 |----|
口口口口 |----|
35
口口口口 |①---|
口口①口 |----|
口①口口 |----|
口口口口 |----|
36
口口口口 |①---|
口①口口 |----|
口口①口 |----|
口口口口 |----|
37
口口口口 |①---|
口口口口 |----|
①口口① |----|
口口口口 |----|
38
口口口口 |①---|
口口口口 |----|
口①①口 |----|
口口口口 |----|
39
口口口口 |①---|
口口①口 |----|
口①口口 |----|
口口口口 |----|
40
口口口口 |①---|
口①口口 |----|
口口①口 |----|
口口口口 |----|
41
①①①① |①---|
口口口口 |----|
口口口口 |----|
口口口口 |----|
42
口口口口 |①---|
②口口口 |----|
口口口口 |②---|
口①①口 |----|
43
口口口口 |①---|
口口口① |②-③-|
④③②口 |④---|
口口口口 |----|
44
口口口口 |①---|
口口口② |----|
口口口口 |②---|
口①①口 |----|
45
口口口口 |①---|
①口口口 |②-③-|
口②③④ |④---|
口口口口 |----|
46
口口口口 |①---|
②口口口 |----|
口口口口 |②---|
口①①口 |----|
47
口口口口 |①---|
口口口① |②-③-|
④③②口 |④---|
口口⑤口 |⑤---|
48
口口口口 |①---|
口口口② |--②-|
口口①口
口口口口

口口口口
口口口口
⑤④③口 |--③-|
口口口口 |④-⑤-|
49
口口口口 |--①-|
口口口口 |----|
口口口口 |----|
口①①口 |----|
50
②口口口 |①---|
口口口口 |②---|
口①①口
口口口口

口口口口
口口④③
⑥⑤口口 |③-④-|
口口口口 |⑤-⑥-|
51
②②①① |①---|
口③③口 |②---|
口口口口 |③---|
口口口口 |----|
52
口口口② |①---|
口口口口 |②---|
口①①口
口口口口

口口口口
③④口口
口口⑤⑥ |③-④-|
口口口口 |⑤-⑥-|
53
①①②② |①---|
口③③口 |②---|
口④④口 |③---|
口口口口 |④---|
54
④③②① |①-②-|
⑤⑥⑦⑧ |③-④-|
口口口口 |⑤-⑥-|
口口口口 |⑦-⑧-|
55
①①②② |①---|
口③③口 |②---|
口口口口 |③---|
口口口口 |----|
56
①②③④ |①-②-|
⑧⑦⑥⑤ |③-④-|
口口口口 |⑤-⑥-|
口口口口 |⑦-⑧-|
57
口①①口 |①---|
③口口③ |②---|
口②②口 |③---|
④口口④ |④---|

不確定度: 0

最終更新:2017年08月13日 13:31