LOSER
米津玄師

BASIC

Level: 4
BPM: 121
Notes: 273

1
口口口口 |----|
口口口口 |----|
口口口口 |----|
口口口口 |----|
2
口口口③ |①---|
口①口② |----|
口口口口 |②---|
口口口口 |③---|
3
口口口③ |①---|
口①口② |----|
口口口口 |②---|
口口口口 |③---|
4
口口口③ |①---|
口①口② |----|
口口口口 |②---|
口口口口 |③---|
5
口口口口 |①---|
②口④口 |②---|
①口③口 |③---|
口口口口 |④---|
6
口口口③ |①---|
口①口② |----|
口口口口 |②---|
口口口口 |③---|
7
口口口③ |①---|
口①口② |----|
口口口口 |②---|
口口口口 |③---|
8
口口口③ |①---|
口①口② |----|
口口口口 |②---|
口口口口 |③---|
9
口口口口 |①---|
①口③口 |②---|
②口④口 |③---|
口口口口 |④---|
10
口口口③ |①---|
口①口② |----|
口口口口 |②---|
口口口口 |③---|
11
口口口③ |①---|
口①口② |----|
口口口口 |②---|
口口口口 |③---|
12
口口口口 |①---|
口②②口 |----|
口①①口 |②---|
口口口口 |----|
13
①②③④ |①---|
口口口口 |②---|
口口口口 |③---|
口口口口 |④---|
14
口口口口 |①---|
口②②口 |----|
口①①口 |②---|
口口口口 |----|
15
口口口口 |①---|
口口口口 |②---|
①②③④ |③---|
口口口口 |④---|
16
口口口口 |①---|
①口口② |----|
口口口口 |②---|
口口口口 |----|
17
口口口口 |①---|
口口口口 |----|
①口口② |②---|
口口口口 |----|
18
口④④口 |①---|
口③③口 |②---|
口②②口 |③---|
口①①口 |④---|
19
口口口③ |①---|
①口口② |----|
口口口口 |②---|
口口口口 |③---|
20
口口口口 |----|
口①②口 |①---|
口口③口 |②---|
口口口口 |③---|
21
口口口口 |①---|
口②③口 |②---|
口①④口 |③---|
口口口口 |④---|
22
口口口口 |①---|
口口口口 |----|
②①口② |②---|
口口口口 |----|
23
①口口① |①---|
口口口口 |----|
口口口口 |----|
口口口口 |----|
24
口口口口 |----|
口①②口 |①---|
口③口口 |②---|
口口口口 |③---|
25
口口口口 |①---|
口②③口 |②---|
口④①口 |③---|
口口口口 |④---|
26
口口口口 |①---|
②口口② |----|
口口①口 |②---|
口口口口 |----|
27
口⑤⑤口 |①---|
②口④② |②---|
口③口口 |③-④-|
口①①口 |⑤---|
28
口口口口 |①-②-|
①②③④ |③-④-|
⑤⑥⑦⑧ |⑤-⑥-|
口口口口 |⑦-⑧-|
29
①②③④ |①-②-|
⑤⑥⑦⑧ |③-④-|
口口口口 |⑤-⑥-|
口口口口 |⑦-⑧-|
30
①①②② |①---|
口口口口 |--②-|
口③③口 |----|
口口口口 |③---|
31
②口口② |①---|
①口口① |----|
口口口口 |②---|
口口口口 |----|
32
口口口口 |①-②-|
①②③④ |③-④-|
⑤⑥⑦⑧ |⑤-⑥-|
口口口口 |⑦-⑧-|
33
①②③④ |①-②-|
口⑤口口 |③-④-|
口口口口 |⑤---|
口口口口 |----|
34
口口口口 |①---|
②口口② |----|
口①①口 |②---|
口口口口 |----|
35
口口口口 |①---|
口②②口 |----|
①口口① |②---|
口口口口 |----|
36
①口口② |①---|
①口口② |----|
口口口口 |②---|
口口口口 |----|
37
口口口口 |①---|
口①①口 |----|
口②②口 |②---|
口口口口 |----|
38
口口口口 |①---|
口口口口 |----|
①口口② |②---|
①口口② |----|
39
口口口口 |①---|
①②③④ |②---|
口口口口 |③---|
口口口口 |④---|
40
①口口② |①---|
①口口② |----|
口口口口 |②---|
口口口口 |----|
41
口①口口 |①---|
口口②口 |②---|
口③口口 |③---|
口口④口 |④---|
42
口口口口 |①---|
口口口口 |----|
①口口② |②---|
①口口② |----|
43
口④④口 |①---|
口③③口 |②---|
口②②口 |③---|
口①①口 |④---|
44
①口口② |①---|
①口口② |----|
口口口口 |②---|
口口口口 |----|
45
口①②口 |①-②-|
口③④口 |③-④-|
口⑤⑥口 |⑤-⑥-|
口⑦⑧口 |⑦-⑧-|
46
口口口口 |①---|
口口口口 |----|
①口口② |②---|
①口口② |----|
47
口⑦⑧口 |①-②-|
口⑤⑥口 |③-④-|
口③④口 |⑤-⑥-|
口①②口 |⑦-⑧-|
48
①口口② |①---|
①口口② |----|
口口口口 |②---|
口口口口 |----|
49
口①①口 |①---|
口②②口 |②---|
口③③口 |③---|
口④④口 |④---|
50
口口口口 |①---|
口口口口 |----|
①口口② |②---|
①口口② |----|
51
口⑤⑤口 |①---|
②口④② |②---|
口③口口 |③-④-|
口①①口 |⑤---|
52
口口口口 |①-②-|
①②③④ |③-④-|
⑤⑥⑦⑧ |⑤-⑥-|
口口口口 |⑦-⑧-|
53
①②③④ |①-②-|
⑤⑥⑦⑧ |③-④-|
口口口口 |⑤-⑥-|
口口口口 |⑦-⑧-|
54
①①②② |①---|
口口口口 |--②-|
口③③口 |----|
口口口口 |③---|
55
②口口② |①---|
①口口① |----|
口口口口 |②---|
口口口口 |----|
56
口口口口 |①-②-|
①②③④ |③-④-|
⑤⑥⑦⑧ |⑤-⑥-|
口口口口 |⑦-⑧-|
57
①②③④ |①-②-|
口⑤口口 |③-④-|
口口口口 |⑤---|
口口口口 |----|
58
口口口口 |①---|
②口口② |----|
口①①口 |②---|
口口口口 |----|
59
③口口③ |①---|
口②②口 |----|
①口口① |②---|
口口口口 |③---|

不確定度: 0

最終更新:2017年08月13日 13:26