LOSER
米津玄師

ADVANCED

Level: 7
BPM: 121
Notes: 614

1
口口口口 |----|
口口口口 |----|
口口口口 |----|
口口口口 |----|
2
口口口⑤ |①-②-|
①②口⑥ |③-④-|
③④口⑦ |⑤-⑥-|
口口口⑧ |⑦-⑧-|
3
口口口⑤ |①-②-|
①②口⑥ |③-④-|
③④口⑦ |⑤-⑥-|
口口口⑧ |⑦-⑧-|
4
口口口⑤ |①-②-|
①②口⑥ |③-④-|
③④口⑦ |⑤-⑥-|
口口口⑧ |⑦-⑧-|
5
口口口⑤ |①-②-|
③④⑥口 |③-④-|
①②⑦口 |⑤-⑥-|
口口⑧口 |⑦-⑧-|
6
口口口⑤ |①-②-|
①②口⑥ |③-④-|
③④口⑦ |⑤-⑥-|
口口口⑧ |⑦-⑧-|
7
口口口⑤ |①-②-|
①②口⑥ |③-④-|
③④口⑦ |⑤-⑥-|
口口口⑧ |⑦-⑧-|
8
口口口⑤ |①-②-|
①②口⑥ |③-④-|
③④口⑦ |⑤-⑥-|
口口口⑧ |⑦-⑧-|
9
口口口⑤ |①-②-|
③④⑥口 |③-④-|
①②⑦口 |⑤-⑥-|
口口⑧口 |⑦-⑧-|
10
口口口⑤ |①-②-|
①②口⑥ |③-④-|
③④口⑦ |⑤-⑥-|
口口口⑧ |⑦-⑧-|
11
口口口⑤ |①-②-|
①②口⑥ |③-④-|
③④口⑦ |⑤-⑥-|
口口口⑧ |⑦-⑧-|
12
④③③④ |①---|
口①①口 |②---|
口②②口 |③---|
口口口口 |④---|
13
口口口口 |①-②-|
①②③④ |③-④-|
⑧⑦⑥⑤ |⑤-⑥-|
口口口口 |⑦-⑧-|
14
①②口口 |①-②-|
口口④③ |③-④-|
⑤⑥口口 |⑤-⑥-|
口口⑧⑦ |⑦-⑧-|
15
⑥口口⑦ |①-②-|
口口②③ |③-④-|
口口①④ |⑤-⑥-|
口口口⑤ |⑦---|
16
口口口口 |①-②-|
②④⑧⑥ |③-④-|
①③⑦⑤ |⑤-⑥-|
口口口口 |⑦-⑧-|
17
口④④口 |①-②-|
⑤⑥⑦⑧ |③-④-|
②口口③ |⑤-⑥-|
口①①口 |⑦-⑧-|
18
⑤⑥⑦⑧ |①-②-|
口口口口 |③-④-|
口口④① |⑤-⑥-|
口口③② |⑦-⑧-|
19
口⑥⑥口 |①-②-|
口口④① |③-④-|
口口③② |⑤---|
口⑤⑤口 |⑥---|
20
①口口① |①---|
⑦②③口 |②-③-|
⑥⑤④口 |④-⑤-|
口口口口 |⑥-⑦-|
21
①②口口 |①-②-|
⑧③④口 |③-④-|
⑦⑥⑤口 |⑤-⑥-|
口口口口 |⑦-⑧-|
22
①②口口 |①-②-|
口⑤⑥⑦ |③-④-|
口④③⑧ |⑤-⑥-|
口口口口 |⑦-⑧-|
23
口口口口 |①-②-|
口口口口 |③---|
口口口口 |----|
口③②① |----|
24
口口口口 |----|
①③④② |①-②-|
口⑤⑥口 |③-④-|
口口口口 |⑤-⑥-|
25
③④⑤⑥ |①-②-|
口口⑧⑦ |③-④-|
①口口② |⑤-⑥-|
口口口口 |⑦-⑧-|
26
口口口口 |①-②-|
②①口口 |③-④-|
⑦③④⑧ |⑤-⑥-|
口⑤⑥口 |⑦-⑧-|
27
口④④口 |①---|
⑤口口⑤ |②---|
⑤口口⑤ |③-④-|
①③③② |⑤---|
28
①口口⑤ |①-②-|
口②⑥口 |③-④-|
口⑦③口 |⑤-⑥-|
⑧口③④ |⑦-⑧-|
29
④口口④ |①-②-|
③口口③ |③-④-|
②口口②
口①①口

口⑦⑦口
口口口口
口⑤⑤口 |⑤-⑥-|
口⑥⑥口 |⑦---|
30
①口口④ |①-②-|
②⑦⑧⑤ |③-④-|
③口口⑥ |⑤-⑥-|
口⑦⑧口 |⑦-⑧-|
31
口②②口 |①---|
⑤口口⑤ |②-③-|
④①①④ |④-⑤-|
③口口③ |----|
32
①口口⑤ |①-②-|
口②⑥口 |③-④-|
口⑦③口 |⑤-⑥-|
⑧口③④ |⑦-⑧-|
33
④口口④ |①-②-|
③口口③ |③-④-|
②口口②
口①①口

口⑤⑤口
口口口口
⑦⑤⑤⑦ |⑤---|
⑥口口⑥ |⑥-⑦-|
34
口口口口 |①---|
①口口① |--②-|
口②②口
口口口口

口⑥⑥口
⑤③③⑤
口口口口 |③--④-⑤|
④口口④ |--⑥-|
35
③口口③ |①--②-③|
口④⑥口 |--④-|
②⑤⑦② |⑤-⑥-|
口①①口 |⑦---|
36
①口口① |①---|
口口口口 |②---|
①口口①
口②②口

④⑥⑥④
③⑤⑤③
④⑥⑥④ |③-④-|
口口口口 |⑤-⑥-|
37
口口口口 |①-②-|
②⑥⑦③ |③-④-|
口⑤⑧口 |⑤-⑥-|
口①④口 |⑦-⑧-|
38
①口口① |①---|
口口口口 |②---|
①口口①
口②②口

④⑥⑥④
③⑤⑤③
④⑥⑥④ |③-④-|
口口口口 |⑤-⑥-|
39
口口口口 |①-②-|
⑤⑥⑦⑧ |③-④-|
口口口口 |⑤-⑥-|
①②③④ |⑦-⑧-|
40
①口口① |①---|
口口口口 |②---|
①口口①
口②②口

④⑥⑥④
③⑤⑤③
④⑥⑥④ |③-④-|
口口口口 |⑤-⑥-|
41
口口口口 |①-②-|
③④⑧⑦ |③-④-|
口口口口 |⑤-⑥-|
⑤⑥②① |⑦-⑧-|
42
①口口① |①---|
口口口口 |②---|
①口口①
口②②口

④⑥⑥④
③⑤⑤③
④⑥⑥④ |③-④-|
口口口口 |⑤-⑥-|
43
口⑧⑧口 |①-②-|
⑥⑦⑦⑥ |③-④-|
口⑤⑤口 |⑤-⑥-|
①②③④ |⑦-⑧-|
44
①口口① |①---|
口口口口 |②---|
①口口①
口②②口

④⑥⑥④
③⑤⑤③
④⑥⑥④ |③-④-|
口口口口 |⑤-⑥-|
45
口口⑧④ |①-②-|
口⑦口② |③-④-|
③口⑥口 |⑤-⑥-|
①⑤口口 |⑦-⑧-|
46
①口口① |①---|
口口口口 |②---|
①口口①
口②②口

④⑥⑥④
③⑤⑤③
④⑥⑥④ |③-④-|
口口口口 |⑤-⑥-|
47
④口口④ |①-②-|
②口口② |③-④-|
③口口③
①口口①

口⑤⑤口
口⑥⑥口
口⑦⑦口 |⑤-⑥-|
⑧口口⑧ |⑦-⑧-|
48
①口口① |①---|
口口口口 |②---|
①口口①
口②②口

④⑥⑥④
③⑤⑤③
④⑥⑥④ |③-④-|
口口口口 |⑤-⑥-|
49
④⑧⑧④ |①-②-|
②⑦⑦② |③-④-|
③⑥⑥③ |⑤-⑥-|
①⑤⑤① |⑦-⑧-|
50
①口口① |①---|
口口口口 |②---|
①口口①
口②②口

④⑥⑥④
③⑤⑤③
④⑥⑥④ |③-④-|
口口口口 |⑤-⑥-|
51
口④④口 |①---|
⑤口口⑤ |②---|
⑤口口⑤ |③-④-|
①③③② |⑤---|
52
①口口⑤ |①-②-|
口②⑥口 |③-④-|
口⑦③口 |⑤-⑥-|
⑧口③④ |⑦-⑧-|
53
④口口④ |①-②-|
③口口③ |③-④-|
②口口②
口①①口

口⑦⑦口
口口口口
口⑤⑤口 |⑤-⑥-|
口⑥⑥口 |⑦---|
54
①口口④ |①-②-|
②⑦⑧⑤ |③-④-|
③口口⑥ |⑤-⑥-|
口⑦⑧口 |⑦-⑧-|
55
口②②口 |①---|
⑤口口⑤ |②-③-|
④①①④ |④-⑤-|
③口口③ |----|
56
①口口⑤ |①-②-|
口②⑥口 |③-④-|
口⑦③口 |⑤-⑥-|
⑧口③④ |⑦-⑧-|
57
④口口④ |①-②-|
③口口③ |③-④-|
②口口②
口①①口

口⑤⑤口
口口口口
⑦⑤⑤⑦ |⑤---|
⑥口口⑥ |⑥-⑦-|
58
口口口口 |①---|
①口口① |--②-|
口②②口
口口口口

口⑥⑥口
⑤③③⑤
口口口口 |③--④-⑤|
④口口④ |--⑥-|
59
③口口③ |①--②-③|
口④⑥口 |--④-|
②⑤⑦② |⑤-⑥-|
口①①口 |⑦---|

不確定度: 0

最終更新:2017年08月13日 13:26