翡翠の狼
米津玄師

BASIC

Level: 3
BPM: 121
Notes: 256

1
口口口口 |----|
口口口口 |----|
口口口口 |----|
口口口口 |----|
2
口口口口 |①---|
①①①① |----|
口③②口 |②---|
口口口口 |③---|
3
口口口口 |①---|
①口口① |----|
口②③口 |②---|
口口口口 |③---|
4
口口口口 |①---|
①口口① |----|
口③②口 |②---|
口口口口 |③---|
5
口口口口 |①---|
①口口① |----|
口②③口 |②---|
口口口口 |③---|
6
①口口① |①---|
口口口口 |----|
口③②口 |②---|
口口口口 |③---|
7
①口口① |①---|
口口口口 |----|
口②③口 |②---|
口口口口 |③---|
8
①口口① |①---|
口口口口 |----|
口③②口 |②---|
口口口口 |③---|
9
①口口① |①---|
口口口口 |----|
口②③口 |②---|
口口口口 |③---|
10
口口口口 |①---|
口口口口 |②---|
①②口口 |③---|
口③④口 |④---|
11
口口口口 |①---|
口口口口 |②---|
口口①② |③---|
口③③口 |----|
12
口口口口 |①---|
口口口口 |②---|
口口②① |③---|
口④③口 |④---|
13
口口口口 |①---|
口③③口 |②---|
②①口口 |③---|
口④④口 |④---|
14
口口口口 |①---|
口口口口 |②---|
①②口口 |③---|
口③④口 |④---|
15
口口口口 |①---|
口口口口 |②---|
口口①② |③---|
口③③口 |----|
16
口口口口 |①---|
口口口口 |②---|
口口②① |③---|
口④③口 |④---|
17
口口口口 |①---|
口口口口 |②---|
②①口口 |③---|
口③③口 |----|
18
口口口口 |①---|
口口②① |②---|
口④③口 |③---|
口口口口 |④---|
19
口口口口 |①---|
②①口口 |②---|
口④④口 |③---|
口③③口 |④---|
20
口口口口 |①---|
①②口口 |②---|
口③④口 |③---|
口口口口 |④---|
21
口③③口 |①---|
口口①② |②---|
口④④口 |③---|
口口口口 |④---|
22
口口口口 |①---|
口口②① |②---|
口④③口 |③---|
口口口口 |④---|
23
口口口口 |①---|
②①口口 |②---|
口④④口 |③---|
口③③口 |④---|
24
口口口口 |①---|
①②口口 |②---|
口③④口 |③---|
口口口口 |④---|
25
口口口口 |①---|
口口①② |②---|
口口口口 |③---|
口③③口 |----|
26
口口口口 |①---|
口①①口 |②---|
口②②口 |③---|
口③③口 |----|
27
①口口① |①---|
②口口② |②---|
③口口③ |③---|
口口口口 |----|
28
口口口口 |①---|
口②①口 |②---|
口④③口 |③---|
口口口口 |④---|
29
口口口口 |①---|
口口口口 |②---|
③口口③ |③---|
口②①口 |----|
30
口口口口 |①---|
口①①口 |②---|
口②②口 |③---|
口③③口 |----|
31
①口口① |①---|
②口口② |②---|
③口口③ |③---|
口口口口 |----|
32
口口口口 |①---|
口口口口 |②---|
口④③口 |③---|
口②①口 |④---|
33
①口口① |①---|
②口口② |②---|
③口口③ |③---|
④口口④ |④---|
34
口口口口 |①---|
口①①口 |----|
口口口口 |----|
口口口口 |----|
35
口口口口 |①---|
口口口口 |②---|
④①①④ |③---|
③②②③ |④---|
36
口①①口 |①---|
口②②口 |②---|
口③③口 |③---|
口④④口 |④---|
37
口口口口 |①---|
口口口口 |②---|
①④④① |③---|
②③③② |④---|
38
①①①① |①---|
②②②② |②---|
③③③③ |③---|
口口口口 |----|
39
口口口口 |①---|
①④④① |②---|
②③③② |③---|
口口口口 |④---|
40
①口口① |①---|
②口口② |②---|
③口口③ |③---|
④口口④ |④---|
41
口口口口 |①---|
④①①④ |②---|
③②②③ |③---|
口口口口 |④---|
42
口①①口 |①---|
口②②口 |②---|
口③③口 |③---|
口口口口 |----|
43
口口口口 |①---|
①①①① |----|
口③②口 |②---|
口口口口 |③---|
44
口口口口 |①---|
①口口① |----|
口②③口 |②---|
口口口口 |③---|
45
口口口口 |①---|
①口口① |----|
口③②口 |②---|
口口口口 |③---|
46
口口口口 |①---|
①口口① |----|
口②③口 |②---|
口口口口 |③---|
47
①口口① |①---|
口口口口 |----|
口③②口 |②---|
口口口口 |③---|
48
①口口① |①---|
口口口口 |----|
口②③口 |②---|
口口口口 |③---|
49
①口口① |①---|
口口口口 |----|
口③②口 |②---|
口口口口 |③---|
50
①口口① |①---|
③③③③ |----|
口②②口 |②---|
口口口口 |③---|

不確定度: 0

最終更新:2017年08月13日 13:25