翡翠の狼
米津玄師

ADVANCED

Level: 6
BPM: 121
Notes: 417

1
口口口口 |----|
口口口口 |----|
口口口口 |----|
口口口口 |----|
2
口口口口 |①---|
⑥①①④ |②---|
⑤①①③ |③-④-|
口②②口 |⑤-⑥-|
3
口①①口 |①---|
④口口⑥ |②---|
③口口⑤ |③-④-|
口②②口 |⑤-⑥-|
4
口口口口 |①---|
⑥①①④ |②---|
⑤口口③ |③-④-|
口②②口 |⑤-⑥-|
5
③口口口 |①---|
④口口口 |②---|
⑤①①口 |③-④-|
口②②口 |⑤---|
6
口口口口 |①---|
⑥①①④ |②---|
⑤口口③ |③-④-|
口②②口 |⑤-⑥-|
7
口①①口 |①---|
④口口⑥ |②---|
③口口⑤ |③-④-|
口②②口 |⑤-⑥-|
8
口口口口 |①---|
⑥①①④ |②---|
⑤口口③ |③-④-|
口②②口 |⑤-⑥-|
9
口口口口 |①---|
口口口口 |②---|
口①①口
口②②口

③口口口
④口口口
⑤口⑥口 |③-④-|
口口口口 |⑤-⑥-|
10
口④⑤口 |①-②-|
口⑥③口 |③-④-|
口②⑦口 |⑤-⑥-|
口⑧①口 |⑦-⑧-|
11
口口口口 |①-②-|
④口口③ |③-④-|
②口口①
口口口口

口口口口
口口口口
⑦口口⑥ |⑤---|
口⑤⑤口 |⑥-⑦-|
12
口口口口 |①-②-|
②口口① |③-④-|
口④③口
口口口口

口口口口
⑧口口⑧
⑦口口⑦ |⑤-⑥-|
口⑥⑤口 |⑦-⑧-|
13
①口口① |①-②-|
⑥③②⑥ |③-④-|
口⑤④口 |⑤---|
口口口口 |⑥---|
14
口④⑤口 |①-②-|
口⑥③口 |③-④-|
口②⑦口 |⑤-⑥-|
口⑧①口 |⑦-⑧-|
15
口口口口 |①-②-|
④口口③ |③-④-|
②口口①
口口口口

口口口口
口口口口
⑦口口⑥ |⑤---|
口⑤⑤口 |⑥-⑦-|
16
口口口口 |①-②-|
②口口① |③-④-|
⑧④③⑦ |⑤-⑥-|
口⑥⑤口 |⑦-⑧-|
17
口②①口 |①-②-|
口④③口 |③-④-|
口口⑤口 |⑤---|
口口口口 |----|
18
口④⑤口 |①-②-|
口⑥③口 |③-④-|
口②⑦口 |⑤-⑥-|
口⑧①口 |⑦-⑧-|
19
口口口口 |①-②-|
④口口③ |③-④-|
②口口①
口口口口

口口口口
口口口口
⑦口口⑥ |⑤---|
口⑤⑤口 |⑥-⑦-|
20
口口口口 |①-②-|
②口口① |③-④-|
口④③口
口口口口

口口口口
⑧口口⑧
⑦口口⑦ |⑤-⑥-|
口⑥⑤口 |⑦-⑧-|
21
①口口① |①-②-|
⑥③②⑥ |③-④-|
口⑤④口 |⑤---|
口口口口 |⑥---|
22
口④⑤口 |①-②-|
口⑥③口 |③-④-|
口②⑦口 |⑤-⑥-|
口⑧①口 |⑦-⑧-|
23
口口口口 |①-②-|
④口口③ |③-④-|
②口口①
口口口口

口口口口
口口口口
⑦口口⑥ |⑤---|
口⑤⑤口 |⑥-⑦-|
24
口口口口 |①-②-|
②口口① |③-④-|
⑧④③⑦ |⑤-⑥-|
口⑥⑤口 |⑦-⑧-|
25
口②①口 |①-②-|
口④③口 |③-④-|
口口⑤口 |⑤---|
口⑥⑥口 |⑥---|
26
③口口③ |①---|
①④④① |②---|
①②②① |③---|
口⑤⑤口 |④-⑤-|
27
口口口口 |①---|
①口口① |②---|
口②②口
口口口口

③口口③
口口④口
口⑤口口 |③---|
口口口口 |④-⑤-|
28
⑥⑤④③ |①-②-|
口②口口 |③-④-|
⑦⑧①口 |⑤-⑥-|
口口口口 |⑦-⑧-|
29
⑤口口⑤ |①-②-|
口④③口 |③-④-|
口口①② |⑤---|
口口口口 |----|
30
③口口③ |①---|
①④④① |②---|
口②②口 |③---|
口⑤⑤口 |④-⑤-|
31
口口口口 |①---|
①口口① |②---|
口②②口
口口口口

③口口③
口口④口
口⑤口口 |③---|
口口口口 |④-⑤-|
32
⑤④③⑤ |①-②-|
⑥②口⑥ |③-④-|
⑦口①⑦ |⑤-⑥-|
口⑧⑧口 |⑦-⑧-|
33
口①①口 |①---|
口②②口 |②---|
口③③口 |③---|
口④④口 |④---|
34
①口口① |①---|
口口口口 |----|
口②②口 |----|
口口口口 |--②-|
35
口口口口 |①-②-|
①①①① |③-④-|
口口口口
④③②④

⑦口口⑦
⑥口⑧⑥
⑤口口⑤ |⑤-⑥-|
口口口口 |⑦-⑧-|
36
口口①口 |①-②-|
口②口口 |③-④-|
口口③口
口④口口

⑦口⑧口
⑥口口口
⑤口口口 |⑤-⑥-|
口口口口 |⑦-⑧-|
37
口口口口 |①-②-|
口①口口 |③-④-|
口口②口
④③口④

⑦口口⑦
⑥⑧口⑥
⑤口口⑤ |⑤-⑥-|
口口口口 |⑦-⑧-|
38
口①口口 |①-②-|
⑤口②⑤ |③-④-|
口③⑥口 |⑤---|
口口④口 |--⑥-|
39
⑦口口⑦ |①-②-|
⑥口⑧⑥ |③-④-|
⑤①口⑤ |⑤-⑥-|
④③②④ |⑦-⑧-|
40
⑦口①口 |①-②-|
⑥②口口 |③-④-|
⑤口③口 |⑤-⑥-|
口④口口 |⑦---|
41
口口①口 |①-②-|
口②口口 |③-④-|
口口③口
口④口口

⑦口口口
⑥⑧口口
⑤口口口 |⑤-⑥-|
口口口口 |⑦-⑧-|
42
⑥⑥⑥⑥ |①-②-|
口口口口 |③-④-|
⑤②①⑤ |⑤---|
口④③口 |⑥---|
43
口口口口 |①---|
⑥①①④ |②---|
⑤①①③ |③-④-|
口②②口 |⑤-⑥-|
44
口①①口 |①---|
④口口⑥ |②---|
③口口⑤ |③-④-|
口②②口 |⑤-⑥-|
45
口口口口 |①---|
⑥①①④ |②---|
⑤口口③ |③-④-|
口②②口 |⑤-⑥-|
46
③口口口 |①---|
④口口口 |②---|
⑤①①口 |③-④-|
口②②口 |⑤---|
47
口口口口 |①---|
⑥①①④ |②---|
⑤口口③ |③-④-|
口②②口 |⑤-⑥-|
48
口①①口 |①---|
④口口⑥ |②---|
③口口⑤ |③-④-|
口②②口 |⑤-⑥-|
49
口口口口 |①---|
⑥①①④ |②---|
⑤口口③ |③-④-|
口②②口 |⑤-⑥-|
50
口口口口 |①---|
口口口口 |②---|
口①①口
口②②口

⑤⑤⑤⑤
口③③口
口④④口 |③-④-|
口口口口 |⑤---|

不確定度: 0

最終更新:2017年08月13日 13:24