Good-bye Chalon
猫叉Master+

EXTREME

Level: 9
BPM: 154
Notes: 619

1
口口口口 |----|
口口口口 |----|
口口口口 |----|
口口口口 |----|
2
①口②口 |①-②-③-|
口③口④ |④-⑤-⑥-|
⑤口⑥口
口口口口

⑪口口⑪
⑨口⑩口
口口口口 |⑦-⑧-⑨-|
口⑦口⑧ |⑩-⑪-|
3
口①①口 |①--②|
口②⑤口 |-③-④|
⑥口口③ |----|
口④口口 |⑤-⑥-|
4
口口口口 |①---|
②口口③ |-②-③|
④口口口 |----|
②口①③ |--④-|
5
口②③口 |①---|
口口口口 |②③-④|
口口口①
④口口④

口口口口
⑤口口⑥
⑦口口⑧ |----|
口口口口 |⑤⑥⑦⑧|
6
④口口④ |①---|
口②③口 |②③-④|
口口口口 |----|
⑤①①⑤ |⑤---|
7
口②③口 |①---|
①⑨⑩① |②③-④|
④⑦⑧④ |--⑤⑥|
口⑤⑥口 |⑦⑧⑨⑩|
8
口③④口 |①-②-|
①口口① |③④-⑤|
⑤口口⑤
②口口②

口口口口
⑥口口⑥
口口口口 |----|
口口口口 |--⑥-|
9
口①①口 |①-②-③-|
口②②口 |-④-⑤|
⑤③③⑤
④口口④

口⑥⑦口
口⑧⑨口
口口口口 |----|
口口口口 |⑥⑦⑧⑨|
10
口口口口 |①---|
④口口④ |②③-④|
口②③口 |----|
①⑤⑤① |⑤---|
11
口①①口 |①--②|
②⑤⑥③ |--③-|
口口口口 |④-⑤⑥|
⑦④④口 |--⑦-|
12
口口口口 |①-②③|
④口口④ |--④-|
口②③口
口口口①

口⑤⑥口
口⑦口口
口⑨⑨口 |⑤⑥⑦-|
口⑧⑧口 |⑧-⑨-|
13
①口口① |①--②|
口口口口 |--③-|
②口口③
口口口口

⑦口口口
口⑤⑥口
口口口口 |④-⑤⑥|
口④④口 |--⑦-|
14
口口口① |①--②|
口口口口 |--③-|
②⑤⑥③ |④-⑤⑥|
⑦④④⑦ |--⑦-|
15
①⑤②⑥ |-①②③|
③口④口 |④-⑤⑥|
口口口口
口口口口

⑪口口口
口⑦口⑧
口⑨口⑩ |⑦⑧⑨⑩|
口口口口 |---⑪|
16
口⑫①⑬ |①②③④|
②⑩③⑪ |⑤---|
④⑧⑤⑨ |⑥⑦⑧⑨|
口⑥口⑦ |⑩⑪⑫⑬|
17
口口口口 |--①②|
口⑤⑥口 |--③-|
①口②⑦ |④-⑤⑥|
④口口③ |--⑦-|
18
口④④口 |①--②|
③口口② |--③-|
①⑤⑤口 |④---|
口口口口 |⑤---|
19
①口口① |①---|
③⑤⑤③ |②--③|
口口口口 |----|
④②②④ |④--⑤|
20
口②②口 |----|
④口口④ |①--②|
①口口① |----|
口③③口 |③--④|
21
口①①口 |----|
口口口口 |----|
口口口口 |----|
口口口口 |①---|
22
口口口② |①②③④|
③口口④ |⑤⑥⑦⑧|
①⑤⑥①
口⑦⑧口

口⑨⑩口
口⑪⑫口
⑬口口⑭ |⑨⑩⑪⑫|
⑮口口⑯ |⑬⑭⑮⑯|
23
①口口① |①---|
③⑤⑥③ |②--③|
口口口口 |----|
④②②⑦ |④⑤⑥⑦|
24
口②②口 |----|
④口口④ |①--②|
①口口① |----|
口③③口 |③--④|
25
口口口口 |----|
口口口口 |----|
口口口口 |----|
①口口① |①---|
26
①口②口 |①-②-③-|
⑨③⑪④ |④-⑤-⑥-|
⑤⑪⑥⑩ |⑦-⑧-⑨-|
口⑦口⑧ |⑩-⑪-|
27
①④⑤② |①-②-|
⑥口口⑦ |③-④⑤|
口⑧⑨口 |--⑥-|
口③③口 |⑦-⑧⑨|
28
⑥口口⑥ |--①-|
口口口口 |②-③④|
①口口② |----|
⑤③④⑤ |⑤--⑥|
29
口口口口 |----|
口①①口 |----|
口口口口 |----|
口口口口 |①---|
30
口口口口 |①---|
口口口口 |----|
口①①口
口口口口

口②③口
口④⑤口
口⑥⑦口 |--②③|
口口口口 |④⑤⑥⑦|
31
①④⑤② |①-②-|
口⑦⑧口 |③-④⑤|
口⑨⑩口 |--⑥-|
⑥③③⑥ |⑦⑧⑨⑩|
32
①⑥⑥① |-①-②|
②口口② |-③-④|
③⑤⑤③ |----|
④口口④ |⑤--⑥|
33
口口口口 |----|
②③③② |①--②|
口口口口 |----|
①口口① |③---|
34
口口口口 |①---|
③口口③ |----|
②口口② |②---|
口①①口 |③---|
35
①②⑥① |①---|
口③⑦口 |---②③④|
口④⑧口 |⑤---|
口⑤口口 |---⑥⑦⑧|
36
②口口② |①---|
③⑥⑦③ |---②③④|
④⑧口④ |⑤-⑥-|
⑤口①⑤ |⑦-⑧-|
37
②口口⑥ |①---|
③口口⑦ |---②③④|
④口①⑧ |⑤---|
⑤口口口 |---⑥⑦⑧|
38
⑤口口⑥ |①---|
口②③口 |--②③|
口④口口 |④-⑤-|
⑦口口① |⑥-⑦-|
39
②口③⑤ |①---|
④⑥口⑦ |--②③|
⑧口⑨口 |④-⑤⑥|
口口口① |⑦-⑧⑨|
40
口口⑤口 |①-②③|
口口⑥口 |④---|
口⑨⑦② |---⑤⑥⑦|
①③⑧④ |⑧-⑨-|
41
②①⑥口 |①---|
③口⑦口 |---②③④|
④口⑧口 |⑤---|
⑤口口口 |---⑥⑦⑧|
42
⑩②⑪⑥ |①--②③④|
⑫③⑬⑦ |⑤--⑥⑦⑧|
⑭④⑮⑧ |⑨⑩⑪⑫|
⑯⑤①⑨ |⑬⑭⑮⑯|
43
⑩②口⑥ |①--②③④|
⑪③口⑦ |⑤--⑥⑦⑧|
⑫④口⑧ |-⑨----|
口⑤①⑨ |---⑩⑪⑫|
44
⑥②⑤③ |①---|
口④⑦口 |--②③|
口⑧⑨口 |④-⑤⑥|
①口口口 |⑦-⑧⑨|
45
⑥口口② |①--②③④|
⑦口口③ |⑤--⑥⑦⑧|
⑧口口④
口①口⑤

口⑩⑩口
口⑪⑪口
口⑫⑫口 |⑨--⑩⑪⑫|
⑨⑬⑬口 |⑬---|
46
①口口② |--①②|
③口口口 |③-④⑤|
⑤口口④ |⑥---|
口⑦⑦⑥ |⑦---|
47
②③④口 |①---|
口口口口 |---②③④|
口①①口
口口口口

口口口⑤
⑨⑧⑦⑥
⑩⑪⑫口 |⑤--⑥⑦⑧|
口口口口 |⑨--⑩⑪⑫|
48
⑨⑥⑥⑩ |①--②③④|
⑦口口⑧ |⑤-⑥-|
口口口① |⑦-⑧-|
⑤④③② |⑨-⑩-|
49
口②⑥口 |①---|
口③⑦口 |---②③④|
口④⑧口 |⑤---|
①⑤口① |---⑥⑦⑧|
50
口口口口 |①---|
②口口③ |--②③|
口口口口
口口①口

口口口口
口口口口
④口口口 |④---|
口⑤⑤口 |⑤---|
51
⑦①①口 |①--②|
②⑤⑥② |--③-|
③口口③ |④-⑤⑥|
口④④口 |--⑦-|
52
口口口① |①-②③|
口口口口 |--④-|
口②③口
④口口④

⑨口口⑧
口⑤⑥口
⑦口口口 |⑤⑥⑦-|
口口口口 |⑧-⑨-|
53
⑦①①口 |①--②|
②⑤⑥② |--③-|
③口口③ |④-⑤⑥|
口④④口 |--⑦-|
54
口口口① |①-②③|
口口口口 |--④-|
口②③口
④口口④

⑨口口⑧
口⑤⑥口
⑦口口口 |⑤⑥⑦-|
口口口口 |⑧-⑨-|
55
③①①④ |①---|
口②②口 |②---|
口②②口 |----|
⑤口口⑥ |③④⑤⑥|
56
口①①口 |①--②|
口②⑤口 |-③-④|
⑥口口③ |----|
口④口口 |⑤-⑥-|
57
口口口口 |①---|
②口口③ |-②-③|
口口口口
②口①③

口口口口
口④⑤口
⑥口口⑥ |-④-⑤|
口④⑤口 |-⑥--|
58
口②③口 |①---|
⑤口口⑥ |②③-④|
⑦①①⑧ |----|
④口口④ |⑤⑥⑦⑧|
59
④口口④ |①---|
口②③口 |②③-④|
口口口口 |----|
⑤①①⑤ |⑤---|
60
⑤①①⑤ |①②-③|
④②②④ |-④-⑤|
③⑦⑦③ |----|
口⑥⑥口 |⑥-⑦-|
61
口③④口 |①-②-|
①口口① |③④-⑤|
⑤口口⑤
②口口②

口口口口
⑥口口⑦
口口口口 |---⑥|
口口口口 |--⑦-|
62
口①①口 |①-②-③-|
口②②口 |-④-⑤|
⑤③③⑤
④口口④

口⑥⑦口
口⑧⑨口
口口口口 |----|
口口口口 |⑥⑦⑧⑨|
63
口口口口 |①---|
④口口④ |②③-④|
口⑤⑤口 |----|
①②③① |⑤---|
64
①口口① |①---|
③⑤⑤③ |②--③|
口口口口 |----|
④②②④ |④--⑤|
65
口②②口 |----|
④口口④ |①--②|
①口口① |----|
口③③口 |③--④|
66
口口口口 |----|
口口口口 |----|
口口口口 |----|
口口口口 |----|
67
口口口口 |----|
①口口① |----|
口口口口 |----|
①口口① |①---|
68
口口口口 |----|
口口口口 |----|
口口口口 |----|
口口口口 |----|
69
①口口① |----|
口口口口 |----|
①口口① |①---|
口口口口 |----|


不确定度: 0

最終更新:2012年11月11日 16:31