旅の終わりと祝祭の夜
月船古書堂

BASIC

Level: 5
BPM: 148
Notes: 344

1
口口口口 |----|
口口口口 |----|
口口口口 |----|
口口口口 |----|
2
口口口口 |①---|
口①①口 |----|
口口口口 |----|
口口口口 |----|
3
口口口口 |----|
口口口口 |----|
口口口口 |----|
口口口口 |----|
4
口口口口 |----|
口口口口 |----|
口口口口 |----|
口口口口 |----|
5
口口口口 |----|
口口口口 |----|
口口口口 |----|
口口口口 |----|
6
口口口口 |①---|
口口口口 |②---|
①②④③ |③---|
口口口口 |④---|
7
口口口口 |①---|
④①口④ |②---|
口②口口 |③---|
口③口口 |④---|
8
口口口口 |①---|
口口口口 |②---|
③④②① |③---|
口口口口 |④---|
9
口口口口 |①---|
口口①口 |②---|
口口②口 |③---|
口口③口 |----|
10
口口口口 |①---|
口口口口 |②---|
①②④③ |③---|
口口口口 |④---|
11
口口口口 |①---|
④①口④ |②---|
口②口口 |③---|
口③口口 |④---|
12
口口口口 |①---|
口口口口 |②---|
③④②① |③---|
口口口口 |④---|
13
口口口口 |①---|
口口①口 |②---|
口口②口 |③---|
口口③口 |----|
14
口口口口 |①---|
①②④③ |②---|
口口口口 |③---|
口口口口 |④---|
15
④①口④ |①---|
口②口口 |②---|
口③口口 |③---|
口口口口 |④---|
16
口口口口 |①---|
口口口口 |②---|
③④②① |③---|
口口口口 |④---|
17
口口口口 |①---|
口口①口 |②---|
口口②口 |③---|
口口③口 |----|
18
口口口口 |①---|
①口②① |②---|
口口③口 |③---|
口口④口 |④---|
19
④②②④ |①---|
①口口① |②---|
口③③口 |③---|
口口口口 |④---|
20
口口口口 |①---|
口口口口 |②---|
①②④③ |③---|
口口口口 |④---|
21
口口口口 |①---|
口①口口 |②---|
口②口口 |③---|
口③口口 |----|
22
口口口口 |①---|
口②②口 |----|
口①①口 |②---|
口口口口 |----|
23
口口口口 |----|
口口③口 |①---|
口②①口 |②---|
口口口口 |③---|
24
口口口口 |①---|
口①口口 |----|
口口②口 |②---|
口口口口 |----|
25
口口口口 |①---|
口①口口 |----|
口口口口 |----|
口口口口 |----|
26
口口口口 |①---|
口②②口 |----|
口①①口 |②---|
口口口口 |----|
27
口口口口 |----|
口口③口 |①---|
口②①口 |②---|
口口口口 |③---|
28
口口口口 |①---|
口①口口 |----|
口口口口 |----|
口口口口 |----|
29
口口口口 |①---|
口口口口 |----|
口①①口 |----|
口口口口 |----|
30
口口口口 |①---②-|
口口④① |--③---|
口口⑤② |④---⑤-|
口口⑥③ |--⑥---|
31
口口口口 |①---②-|
④①口口 |--③---|
⑤②口口 |④---⑤-|
⑥③口口 |--⑥---|
32
口口口口 |①---②-|
口口口口 |--③---|
④⑤⑥口 |④---⑤-|
口③②① |--⑥---|
33
④⑤⑥口 |①---②-|
口③②① |--③---|
口口口口 |④---⑤-|
口口口口 |--⑥---|
34
口口口口 |①---②-|
①④口口 |--③---|
②⑤口口 |④---⑤-|
③⑥口口 |--⑥---|
35
口口口口 |①---②-|
口口①④ |--③---|
口口②⑤ |④---⑤-|
口口③⑥ |--⑥---|
36
口口口口 |①---②-|
口口口口 |--③---|
口⑥⑤④ |④---⑤-|
①②③口 |--⑥---|
37
口①①口 |①---|
口口口口 |----|
口②②口 |②---|
口口口口 |----|
38
口口口口 |①---|
①口口① |----|
口口口口 |----|
口口口口 |----|
39
口口口口 |①---|
口口①口 |----|
口②口口 |②---|
口口口口 |----|
40
口口口口 |①---|
口①口口 |----|
口口②口 |②---|
口口口口 |----|
41
口口口口 |①---|
口口①口 |----|
口口口口 |----|
口口口口 |----|
42
口口口口 |①---|
口口口① |----|
口口②口 |②---|
口口口口 |----|
43
口口口口 |①---|
口①口口 |----|
②口口口 |②---|
口口口口 |----|
44
口口口口 |①---|
①口口口 |----|
口②口口 |②---|
口口口口 |----|
45
口口口口 |①---|
口口①口 |----|
口口口口 |----|
口口口口 |----|
46
口口口③ |①---|
口②口口 |②---|
口口口① |③---|
口口口口

口口口口 |④---⑤-|
口口④口 |--⑥---|
口口⑤口
口⑥⑥口
47
③口口口 |①---|
口口②口 |②---|
①口口口 |③---|
口口口口

口口口口 |④---⑤-|
口④口口 |--⑥---|
口⑤口口
口⑥⑥口
48
口口口③ |①---|
口②口口 |②---|
口口口① |③---|
口口口口

口口口口 |④---⑤-|
口口④口 |--⑥---|
口口⑤口
口⑥⑥口
49
③口口口 |①---|
口口②口 |②---|
①口口口 |③---|
口口口口

口口口口 |④---⑤-|
口④口口 |--⑥---|
口⑤口口
口⑥⑥口
50
口口口③ |①---|
口②口口 |②---|
口口口① |③---|
口口口口

口口口口 |④---⑤-|
口口④口 |--⑥---|
口口⑤口
口⑥⑥口
51
③口口口 |①---|
口口②口 |②---|
①口口口 |③---|
口口口口

口口口口 |④---⑤-|
口④口口 |--⑥---|
口⑤口口
口⑥⑥口
52
口口口③ |①---|
口②口口 |②---|
口口口① |③---|
口口口口

口口口口 |④---⑤-|
口口④口 |--⑥---|
口口⑤口
口⑥⑥口
53
③口口③ |①---|
口②②口 |②---|
①口口① |③---|
口口口口

口口口口 |④---⑤-|
口⑥⑥口 |--⑥---|
口⑤⑤口
口④④口
54
①①①① |①---|
口口口口 |----|
口②②口 |②---|
口口口口 |----|
55
③口口③ |①-----|
口口口口 |------|
口②②口 |②---③-|
口①①口 |------|
56
口口口口 |------|
口口口口 |--①---|
口口口①
口口口口
57
⑥④⑤口 |①---②-|
口⑤④口 |--③---|
②③①口 |④---⑤-|
口口口口 |--⑥---|
58
口口口口 |①---②-|
①口口口 |--③---|
②口口口 |④---⑤-|
③④⑤⑥ |--⑥---|
59
口口口口 |①---②-|
⑤口口⑤ |--③---|
③②①⑥ |④---⑤-|
口④④口 |--⑥---|
60
口口口口 |①---②-|
口口口口 |--③---|
②③①口
口口口口

⑤口口⑤
口口口口
⑥口口口 |④---⑤-|
口④④口 |--⑥---|
61
口⑤④⑥ |①---②-|
口④⑤口 |--③---|
口①③② |④---⑤-|
口口口口 |--⑥---|
62
口口口口 |①---②-|
口口口① |--③---|
口口口② |④---⑤-|
⑥⑤④③ |--⑥---|
63
口口口口 |①---②-|
⑤口口⑤ |--③---|
⑥①②③ |④---⑤-|
口④④口 |--⑥---|
64
⑤口口⑤ |①---②-|
口口口口 |--③---|
口①③② |④---⑤-|
口④④口 |------|
65
口口口口 |①-----|
口口口口 |------|
①①①①
口口口口

口口口口
口口②口
口口③口 |②---③-|
口口④口 |--④---|
66
⑥口口⑥ |①---②-|
⑤①口⑤ |--③---|
④②口④ |④---⑤-|
口③口口 |--⑥---|
67
口口口口 |①---②-|
口①④口 |--③---|
口②⑤口 |④---⑤-|
口③⑥口 |--⑥---|
68
③口口③ |①-----|
口②②口 |②-----|
①⑤④① |③---④-|
口④⑤口 |--⑤---|
69
口口口口 |①---②-|
③④②① |--③---|
口口⑥⑤ |④---⑤-|
口口口口 |--⑥---|
70
口口口口 |①---②-|
口③③口 |--③---|
①②口口
口口口口

口⑥⑥口
口口口口
⑤口口⑤ |④---⑤-|
口④④口 |--⑥---|
71
②口口② |①---②-|
口口口口 |------|
口①①口
口口口口

口口口口
口③口口
口⑤④口 |--③---|
口口口口 |④---⑤-|
72
③③③③ |--①---|
口口口口 |②---③-|
口口口口 |------|
口②①口 |------|

不確定度: 0

最終更新:2017年08月13日 13:17