旅の終わりと祝祭の夜
月船古書堂

ADVANCED

Level: 9
BPM: 148
Notes: 632

1
口口口口 |----|
口口口口 |----|
口口口口 |----|
口口口口 |----|
2
口口口口 |①---|
口①①口 |----|
口口口口 |----|
口口口口 |----|
3
口口口口 |----|
口口口口 |----|
口口口口 |----|
口口口口 |----|
4
口口口口 |----|
口口口口 |----|
口口口口 |----|
口口口口 |----|
5
口口口口 |----|
口口口口 |----|
口口口口 |----|
口口口口 |----|
6
②③口口 |①---②-|
口⑧⑨⑩ |③---④-|
⑦⑥⑤口 |⑤-⑥-⑦-|
口④①口 |⑧-⑨-⑩-|
7
口①⑨口 |①---②-|
⑧⑦⑥口 |③-④-⑤-|
口③④⑤ |⑥-⑦-⑧-|
口口②口 |⑨-----|
8
②③口⑨ |①---②-|
⑦⑥⑤口 |③---④-|
口④⑧口 |⑤-⑥-⑦-|
口口①口 |⑧---⑨-|
9
口口①口 |①---②-|
口口③② |③---④-|
口口⑤④ |⑤-----|
口口口口 |------|
10
②③口口 |①---②-|
口⑧⑨⑩ |③---④-|
⑦⑥⑤口 |⑤-⑥-⑦-|
口④①口 |⑧-⑨-⑩-|
11
口①⑨口 |①---②-|
⑧⑦⑥口 |③-④-⑤-|
口③④⑤ |⑥-⑦-⑧-|
口口②口 |⑨-----|
12
⑧口口③ |①---②-|
⑨⑥⑦④ |③-④-⑤-|
⑩②①⑤ |⑥---⑦-|
口口口口 |⑧-⑨-⑩-|
13
口口①口 |①---②-|
口⑥口口 |③-④-⑤-|
口③④⑤ |⑥-----|
口口②口 |------|
14
②③口口 |①---②-|
口⑧⑨⑩ |③---④-|
⑦⑥⑤口 |⑤-⑥-⑦-|
口④①口 |⑧-⑨-⑩-|
15
口①⑨口 |①---②-|
⑧⑦⑥口 |③-④-⑤-|
口③④⑤ |⑥-⑦-⑧-|
口口②口 |⑨-----|
16
②③口⑨ |①---②-|
⑦⑥⑤口 |③---④-|
口④⑧口 |⑤-⑥-⑦-|
口口①口 |⑧---⑨-|
17
口口①口 |①---②-|
口口③② |③---④-|
口口⑤④ |⑤-----|
口口口口 |------|
18
⑩⑨⑧口 |①-----|
口⑤⑥⑦ |②-③-④-|
④③②口 |⑤-⑥-⑦-|
口口①口 |⑧-⑨-⑩-|
19
口口⑧① |①-----|
⑦⑥⑤口 |②-③-④-|
口②③④ |⑤-⑥-⑦-|
口口口口 |⑧-----|
20
⑧口口③ |①---②-|
⑨⑥⑦④ |③-④-⑤-|
⑩②①⑤ |⑥---⑦-|
口口口口 |⑧-⑨-⑩-|
21
口口①口 |①---②-|
口⑥口口 |③-④-⑤-|
口③④⑤ |⑥-----|
口口②口 |------|
22
口口口口 |①-----|
口②口口 |------|
口口①口 |②-----|
口口口口 |------|
23
口口①口 |------|
口②口口 |①-----|
口口③口 |②-----|
口口口口 |③-----|
24
口口口口 |①-----|
口口口口 |------|
口②口口 |②-----|
口①口口 |------|
25
口②口口 |①---②-|
口口口口 |------|
口口①口 |------|
口口口口 |------|
26
口口口口 |①-----|
口②口口 |------|
口口①口 |②-----|
口口口口 |------|
27
口口①口 |------|
口②口口 |①-----|
口口③口 |②-----|
口口口口 |③-----|
28
⑧⑤⑥⑦ |①---②-|
⑤③④⑥ |--③-④-|
①口口② |⑤---⑥-|
口①②口 |--⑦-⑧-|
29
口口④口 |①-②---|
口口口口 |③---④-|
③口口③
②②①①

口⑤口口
口口口口
口口口口 |⑤-----|
口⑥⑥口 |⑥-----|
30
②口④③ |①---②-|
口①⑤④ |--③---|
口①⑥⑤ |④---⑤-|
口⑦口⑥ |--⑥-⑦-|
31
③④口② |①---②-|
④⑥口口 |--③---|
⑥⑦口⑤ |④-⑤-⑥-|
⑦口①口 |--⑦---|
32
②口口③ |①---②-|
口口①口 |--③---|
口口①口
口口口口

口口④口
口口⑤④
口口⑥⑤ |④---⑤-|
口口口⑥ |--⑥---|
33
③口口② |①---②-|
口①口口 |--③---|
口①口口
口口口口

口④口口
④⑥口口
⑥⑦口⑤ |④-⑤-⑥-|
⑦口口口 |--⑦---|
34
②口口③ |①---②-|
口口①口 |--③---|
口口①口
口口口口

口口④口
口口⑤④
口口⑥⑤ |④---⑤-|
口⑦口⑥ |--⑥-⑦-|
35
③④口② |①---②-|
④⑥口口 |--③---|
⑥⑦口⑤ |④-⑤-⑥-|
⑦口①口 |--⑦---|
36
②口口③ |①---②-|
口口①口 |--③---|
口口①口
口口口口

⑨口④口
⑦口⑥④
⑤口⑧⑥ |④-⑤-⑥-|
口口口⑧ |⑦-⑧-⑨-|
37
口口口口 |①-----|
口①口口 |------|
口①口口
口口口口

口口口口
口口口口
口⑤④③ |②-----|
口②②口 |③-④-⑤-|
38
口口③口 |①-----|
口口②口 |--②---|
①④口口 |③-----|
口口口口 |④-----|
39
口口口口 |①-----|
①口②口 |--②---|
口口③口 |③-----|
口口口口 |------|
40
口口口口 |①-----|
口②④① |--②---|
口③口口 |③-----|
口口口口 |④-----|
41
①口口口 |①-----|
口口②口 |------|
口口口口 |------|
口口口口 |--②---|
42
口口①口 |①-----|
口②④口 |--②---|
口③口口 |③-----|
口口口口 |④-----|
43
①口口口 |①-----|
④口口口 |--②-③-|
口②③口 |------|
口口口口 |④-----|
44
口口①④ |①-----|
口③口⑤ |--②---|
口②口口 |③---④-|
口口口口 |--⑤---|
45
口口口口 |①-----|
口口口口 |------|
口口口① |------|
口口口口 |------|
46
口口口口 |①-②-③-|
④口⑦① |④-⑤-⑥-|
②⑧口⑤ |⑦-⑧-⑨-|
⑥口⑨③

⑫⑬⑬⑫ |⑩-⑪-⑫-|
口口口口 |--⑬---|
口口⑪口
口⑩口口
47
口口口口 |①-②-③-|
④口⑦① |④-⑤-⑥-|
②⑧口⑤ |⑦-⑧-⑨-|
⑥口⑨③

⑫⑬⑬⑫ |⑩-⑪-⑫-|
口口口口 |--⑬---|
口口⑪口
口⑩口口
48
口口口口 |①-②-③-|
口④①⑦ |④-⑤-⑥-|
②⑧口⑤ |⑦-⑧-⑨-|
口⑥③⑨

⑫⑬⑬⑫ |⑩-⑪-⑫-|
⑩口口口 |--⑬---|
口口⑪口
口口口口
49
口口口口 |①-②-③-|
口④①⑦ |④-⑤-⑥-|
②⑧口⑤ |⑦-⑧-⑨-|
口⑥③⑨

⑫⑬⑬⑫ |⑩-⑪-⑫-|
⑩口口口 |--⑬---|
口口⑪口
口口口口
50
口口口口 |①-②-③-|
④口⑦① |④-⑤-⑥-|
②⑧口⑤ |⑦-⑧-⑨-|
⑥口⑨③

⑫⑬⑬⑫ |⑩-⑪-⑫-|
口口口口 |--⑬---|
口口⑪口
口⑩口口
51
口口口口 |①-②-③-|
④口⑦① |④-⑤-⑥-|
②⑧口⑤ |⑦-⑧-⑨-|
⑥口⑨③

⑫⑬⑬⑫ |⑩-⑪-⑫-|
口口口口 |--⑬---|
口口⑪口
口⑩口口
52
口口口口 |①-②-③-|
口④①⑦ |④-⑤-⑥-|
②⑧口⑤ |⑦-⑧-⑨-|
口⑥③⑨

⑫⑬⑬⑫ |⑩-⑪-⑫-|
⑩口口口 |--⑬---|
口口⑪口
口口口口
53
口口口口 |①-②-③-|
口⑥①⑦ |④-⑤-⑥-|
②⑧口⑤ |⑦-⑧-⑨-|
口④③⑨

⑫⑩⑩⑫ |⑩---⑪-|
口口口口 |--⑫---|
口口口口
口⑪⑪口
54
②②②② |①-----|
口口口口 |------|
口①①口 |②-----|
口口口口 |------|
55
口③③口 |①-----|
③①①③ |------|
口口口口 |②---③-|
口②②口 |------|
56
口口口口 |------|
口①①口 |--①-②-|
口②②口
口口口口
57
③口口② |①---②-|
口口口口 |--③---|
③口口②
口①①口

口⑤④口
⑤口口④
口⑦⑦口 |④---⑤-|
口⑥⑥口 |--⑥-⑦-|
58
③口口② |①---②-|
口①①口 |③-④-⑤-|
口口口口
⑤口口④

口⑥⑦口
⑥⑧⑧⑦
⑦⑧⑧⑥ |⑥---⑦-|
口⑦⑥口 |--⑧---|
59
①口口① |①---②-|
⑨⑤④⑧ |--③---|
口⑦⑥口 |④-⑤-⑥-|
②③③② |⑦-⑧-⑨-|
60
②⑤④② |①---②-|
口⑥⑥口 |--③---|
⑤⑦⑦④ |④---⑤-|
③①①③ |--⑥-⑦-|
61
③口口② |①---②-|
口口口口 |--③---|
③口口②
口①①口

口⑤④口
⑤口口④
口⑦⑦口 |④---⑤-|
口⑥⑥口 |--⑥-⑦-|
62
③口口② |①---②-|
口①①口 |③-④-⑤-|
口口口口
⑤口口④

口⑥⑦口
⑥⑧⑧⑦
⑦⑧⑧⑥ |⑥---⑦-|
口⑦⑥口 |--⑧---|
63
①③③① |①---②-|
⑧口口⑦ |--③---|
⑥口口⑤ |④---⑤-|
②④④② |⑥-⑦-⑧-|
64
口①①口 |①---②-|
口⑤④口 |③-④-⑤-|
口③②口
口口口口

⑥⑦⑦⑥
口口口口
口口口口 |⑥---⑦-|
口⑧⑧口 |----⑧-|
65
口口口口 |①-----|
①⑦⑥① |------|
①③②① |②-③-④-|
口⑤④口 |⑤-⑥-⑦-|
66
②口口① |①-②-③-|
口口口口 |④-⑤-⑥-|
口⑥⑤口
④口口③

⑫⑪⑨⑩
⑪口⑧⑨
⑦口口口 |⑦-⑧-⑨-|
口⑦口口 |⑩-⑪-⑫-|
67
⑫口口⑪ |①-②-③-|
口⑥⑤口 |④-⑤-⑥-|
⑧②①⑦ |⑦-⑧-⑨-|
⑩④③⑨ |⑩-⑪-⑫-|
68
口口口口 |①-②-③-|
口口①④ |④-⑤-⑥-|
口口②⑤
口口③⑥

口⑪⑩口
口⑨⑧口
⑦⑦口口 |⑦---⑧-|
口口口口 |⑨-⑩-⑪-|
69
口口口① |①-②-③-|
④口⑤口 |④-⑤-⑥-|
口口口口
⑥②口③

⑫⑧口口
口口口⑨
口⑩⑦口 |⑦-⑧-⑨-|
口口口⑪ |⑩-⑪-⑫-|
70
⑦口①⑦ |①-②-③-|
④⑥⑥口 |④-⑤---|
⑤⑨⑧⑤ |⑥---⑦-|
⑨②③⑧ |--⑧-⑨-|
71
⑧④③⑦ |①-②-③-|
④⑥⑤③ |④-----|
②口⑨① |--⑤-⑥-|
口②①口 |⑦-⑧-⑨-|
72
口口口口 |①-②-③-|
⑤口口⑤ |④---⑤-|
④①口④ |------|
⑤③②⑤ |------|

不確定度: 0

最終更新:2017年08月13日 13:17