蒼空に舞え、墨染の桜
Silver Forest feat. さゆり

BASIC

Level: 3
BPM: 150
Notes: 265

1
口口口口 |----|
口口口口 |----|
口口口口 |----|
口口口口 |----|
2
①②口口 |①---|
口③④口 |②---|
口口口口 |③---|
口口口口 |④---|
3
口口口口 |①---|
口口口口 |②---|
口口①② |③---|
口口口③ |----|
4
②②口口 |①---|
口口口口 |----|
口口口口 |②---|
①①口口 |----|
5
口口②② |①---|
口口口口 |----|
口口口口 |②---|
口口①① |----|
6
口口口口 |①---|
口口口口 |②---|
①②③④ |③---|
口口口口 |④---|
7
口口口口 |①---|
①②③④ |②---|
口口口口 |③---|
口口口口 |④---|
8
②②口口 |①---|
口口口口 |----|
口口口口 |②---|
①①口口 |----|
9
口口②② |①---|
口口口口 |----|
口口口口 |②---|
口口①① |----|
10
口口口口 |①---|
口口口口 |②---|
①②③④ |③---|
口口口口 |④---|
11
口口口口 |①---|
①②③④ |②---|
口口口口 |③---|
口口口口 |④---|
12
①①②② |①---|
口口口口 |--②-|
③③口口 |----|
口口口口 |--③-|
13
口口口口 |----|
口口口口 |--①-|
口口①① |----|
口口口口 |----|
14
口口口口 |①---|
①①②② |--②-|
口口口口 |----|
③③口口 |--③-|
15
口口口口 |----|
口口口口 |--①-|
口口口口 |----|
口口①① |----|
16
口口口口 |①---|
口口口口 |----|
口①①口
口口口口
17
③③口口 |①---|
口口②口 |----|
口口口口 |②---|
①口口口 |③---|
18
口口③③ |①---|
口②口口 |----|
口口口口 |②---|
口口口① |③---|
19
①口口口 |①---|
口口口② |②---|
③口④口 |③---|
口口口口 |④---|
20
口口口口 |①---|
口口口口 |----|
口口口口 |----|
口①口口 |----|
21
口口③③ |①---|
②口口口 |----|
口口口口 |②---|
口口口① |③---|
22
③③口口 |①---|
口口口② |----|
口口口口 |②---|
①口口口 |③---|
23
口口口口 |①---|
口②①口 |②---|
口④③口 |③---|
口口口口 |④---|
24
口口口口 |①---|
口口口口 |----|
口口②口 |----|
口口①口 |②---|
25
③③口口 |①---|
口口口② |----|
口口口口 |②---|
①口口口 |③---|
26
口口③③ |①---|
②口口口 |----|
口口口口 |②---|
口口口① |③---|
27
口口口口 |①---|
口③④口 |②---|
口①②口 |③---|
口口口口 |④---|
28
口①口口 |①---|
口口口口 |----|
口口口口 |----|
口口口口 |----|
29
口口③③ |①---|
②口口口 |----|
口口口口 |②---|
口口口① |③---|
30
③③口口 |①---|
口口口② |----|
口口口口 |②---|
①口口口 |③---|
31
口口口口 |①---|
口④③口 |②---|
口②①口 |③---|
口口口口 |④---|
32
口口①口 |①---|
口口口口 |----|
口口口口 |----|
口口口口 |----|
33
口口口④ |①---|
口口口③ |②---|
口口口② |③---|
口口口① |④---|
34
口口①口 |①---|
口②口口 |②---|
口口③口 |③---|
口④口口 |④---|
35
④口口口 |①---|
③口口口 |②---|
②口口口 |③---|
①口口口 |④---|
36
口①口口 |①---|
口口口口 |----|
口口②口 |②---|
口③口口 |③---|
37
口口口口 |①---|
口②口口 |----|
口口口口 |----|
口口①口 |②---|
38
②口口口 |①---|
口口①口 |----|
口口口口 |----|
口口口口 |②---|
39
口口口① |①---|
口口②口 |----|
口口口口 |②---|
口口口口 |----|
40
口口口口 |①---|
口口口口 |----|
口①口口 |----|
口口②口 |②---|
41
口口口口 |①---|
口口②口 |----|
口口口口 |----|
口①口口 |②---|
42
口口口② |①---|
口①口口 |----|
口口口口 |----|
口口口口 |②---|
43
①口口口 |①---|
口②口口 |----|
口口口口 |②---|
口口口口 |----|
44
口口口口 |①---|
口口口口 |----|
口口①口 |----|
口②口口 |②---|
45
口口口口 |①---|
口②口口 |----|
口口①① |----|
口口口口 |②---|
46
②口①① |①---|
口口口口 |----|
口口口口 |----|
口口口口 |②---|
47
口口口① |①---|
口②口口 |②---|
口③口口 |----|
口口口口 |③---|
48
口口口口 |①---|
口口②② |----|
口口口口 |②---|
口口①① |----|
49
口口①① |①---|
口②口口 |----|
口口口口 |②---|
口口口口 |----|
50
口口口口 |①---|
口口口口 |----|
口口①口 |----|
口②口口 |②---|
51
口口口口 |①---|
口②②口 |----|
口口①口 |②---|
口口口口 |----|
52
①口口① |①---|
口口口口 |----|
口口口口 |----|
口口口口 |----|
53
口口口口 |----|
口口口口 |----|
口口口口 |----|
口口口口 |----|
54
④④口口 |①---|
③口口口 |②---|
②口口口 |③---|
①口口口 |④---|
55
口口④④ |①---|
口口口③ |②---|
口口口② |③---|
口口口① |④---|
56
口口口口 |①---|
口①②口 |②---|
口③④口 |③---|
口口口口 |④---|
57
口口口口 |①---|
口口口口 |----|
口口口口 |----|
口①口口 |----|
58
口口④④ |①---|
口口口③ |②---|
口口口② |③---|
口口口① |④---|
59
④④口口 |①---|
③口口口 |②---|
②口口口 |③---|
①口口口 |④---|
60
口口口口 |①---|
口②①口 |②---|
口④③口 |③---|
口口口口 |④---|
61
口口口口 |①---|
口口口口 |----|
口口②口 |----|
口口①口 |②---|
62
④④口口 |①---|
③口口口 |②---|
②口口口 |③---|
①口口口 |④---|
63
口口④④ |①---|
口口口③ |②---|
口口口② |③---|
口口口① |④---|
64
口口口口 |①---|
口③④口 |②---|
口①②口 |③---|
口口口口 |④---|
65
口①口口 |①---|
口口口口 |----|
口口口口 |----|
口口口口 |----|
66
④④口口 |①---|
③口口口 |②---|
②口口口 |③---|
①口口口 |④---|
67
口口④④ |①---|
口口口③ |②---|
口口口② |③---|
口口口① |④---|
68
口口口口 |①---|
口③④口 |②---|
口①②口 |③---|
口口口口 |④---|
69
口①口口 |①---|
②口口口 |②---|
口口口③ |③---|
口口④口 |④---|
70
④④口口 |①---|
③口口口 |②---|
②口口口 |③---|
①①口口 |④---|
71
口口④④ |①---|
口口口③ |②---|
口口口② |③---|
口口①① |④---|
72
口口口口 |①---|
口③④口 |②---|
口①②口 |③---|
口口口口 |④---|
73
口①口口 |①---|
口口口② |②---|
③口口口 |③---|
口④口口 |④---|
74
口口④④ |①---|
口口口③ |②---|
口口口② |③---|
口口①① |④---|
75
④④口口 |①---|
③口口口 |②---|
②口口口 |③---|
①①口口 |④---|
76
口口口口 |①---|
口④③口 |②---|
口②①口 |③---|
口口口口 |④---|
77
口口①口 |①---|
口口口口 |----|
口口口口 |----|
口口口口 |----|

不確定度: 0

最終更新:2017年08月03日 02:03