蒼空に舞え、墨染の桜
Silver Forest feat. さゆり

ADVANCED

Level: 6
BPM: 150
Notes: 438

1
口口口口 |----|
口口口口 |----|
口口口口 |----|
口口口口 |----|
2
口口口口 |①---|
口口口口 |②---|
口口口口 |③---|
①②③④ |④---|
3
口口口口 |①---|
口口口口 |②---|
口口口口 |③---|
①②③④ |④---|
4
口③口口 |①---|
①②③口 |--②-|
口①口口 |----|
口口口口 |③---|
5
口口口口 |①---|
口口③口 |--②-|
口①②③ |----|
口口①口 |③---|
6
①口口② |①-②-|
③口口④ |③-④-|
⑤口口⑥ |⑤-⑥-|
⑦口口⑧ |⑦-⑧-|
7
口①②口 |①-②-|
口③④口 |③-④-|
口⑤⑥口 |⑤-⑥-|
口⑦⑧口 |⑦-⑧-|
8
口②口口 |①---|
②①③口 |--②-|
口③口口 |----|
口口口口 |③---|
9
口口口口 |①---|
口口③口 |--②-|
口③①② |----|
口口②口 |③---|
10
①口口② |①-②-|
③口口④ |③-④-|
⑤口口⑥ |⑤-⑥-|
⑦口口⑧ |⑦-⑧-|
11
口①②口 |①-②-|
口③④口 |③-④-|
口⑤⑥口 |⑤-⑥-|
口⑦⑧口 |⑦-⑧-|
12
①①②② |①---|
口口口口 |--②-|
口口口口 |----|
③③口口 |--③-|
13
口口口口 |----|
口口②② |--①-|
口口口口 |----|
口口①① |--②-|
14
①①②② |①---|
口口口口 |--②-|
口口口口 |----|
③③口口 |--③-|
15
口口口口 |----|
口口口口 |--①-|
口口口口 |----|
口口①① |----|
16
口口口口 |①-②-|
口口口口 |③-④-|
口口口口
①②③④
17
口④口② |①---|
①③④口 |②-③-|
口①口口 |----|
口口口口 |④---|
18
口口口② |①---|
口口④口 |②-③-|
口①③④ |----|
口口①口 |④---|
19
①口口② |①---|
口口口口 |②---|
口口口口 |③---|
③口口④ |④---|
20
④口口⑤ |①---|
口①口口 |②-③-|
⑥口口⑦ |④-⑤-|
口②③口 |⑥-⑦-|
21
口③口口 |①---|
③①④口 |②-③-|
口④口口 |----|
口口口② |④---|
22
②口口口 |①---|
口口④口 |②-③-|
口④①③ |----|
口口③口 |④---|
23
④口口① |①---|
口口口口 |②---|
口口口口 |③---|
②口口③ |④---|
24
口口口口 |①---|
口口①口 |----|
②口口③ |②-③-|
④口口⑤ |④-⑤-|
25
口④口② |①---|
①③④口 |②-③-|
口①口口 |----|
口口口口 |④---|
26
口口口② |①---|
口口④口 |②-③-|
口①③④ |----|
口口①口 |④---|
27
①①②② |①---|
口口口口 |②---|
口口口口 |③---|
③③④④ |④---|
28
②口口③ |①---|
口口口口 |----|
④①①⑤ |②-③-|
口口口口 |④-⑤-|
29
口③口口 |①---|
③①④口 |②-③-|
口④口口 |----|
口口口② |④---|
30
②口口口 |①---|
口口④口 |②-③-|
口④①③ |----|
口口③口 |④---|
31
②②①① |①---|
口口口口 |②---|
口口口口 |③---|
③③④④ |④---|
32
口口口口 |①---|
口①①口 |----|
口口口口 |----|
口口口口 |----|
33
①①④④ |①---|
口口口口 |②-③-|
口⑤⑥口 |④---|
口③②口 |⑤-⑥-|
34
①①②② |①---|
口口口口 |②---|
口口口口 |③---|
④④③③ |④---|
35
④④①① |①---|
口口口口 |②-③-|
口②③口 |④---|
口⑥⑤口 |⑤-⑥-|
36
②口口② |①---|
口①①口 |----|
口⑤④③ |②-③-|
口口口口 |④-⑤-|
37
口口口口 |①---|
口口口口 |----|
①口口口 |--②-|
②③④口 |③-④-|
38
口④③② |①---|
口口口口 |----|
口口口口 |--②-|
口口口① |③-④-|
39
①⑥口口 |①---|
口⑤口口 |②---|
口④②口 |③-④-|
口③口口 |⑤-⑥-|
40
口口口口 |----|
口③②① |----|
口口口口 |--①-|
口口口口 |②-③-|
41
口口口口 |①---|
①口口口 |----|
口口口口 |--②-|
②③④口 |③-④-|
42
口口口口 |①---|
口④③② |----|
口口口口 |--②-|
口口口① |③-④-|
43
③口口② |①---|
①口口口 |②---|
口口口口 |③---|
口口口④ |④---|
44
口口口口 |①---|
口口口口 |----|
口口③口 |----|
①口②口 |②-③-|
45
口口口口 |①---|
③口①口 |----|
②口口口 |----|
口口口口 |②-③-|
46
①口口口 |①---|
口口口口 |----|
口口③② |----|
口口口口 |②-③-|
47
口③②口 |①---|
⑤口口④ |②-③-|
口①口口 |----|
口口口口 |④-⑤-|
48
口④④口 |①---|
口③③口 |②---|
口②②口 |③---|
口①①口 |④---|
49
①口口① |①---|
口口口口 |----|
口口口口 |②---|
②口口② |----|
50
②①①口 |①---|
口②口口 |----|
口口口口 |----|
口口口口 |②---|
51
口口口① |①---|
口口①口 |②---|
②④④③ |③---|
口②③口 |④---|
52
口①①口 |①---|
口口口口 |----|
口口口口 |----|
口口口口 |----|
53
①②③④ |①-②-|
口口口口 |③-④-|
口口口口 |⑤-⑥-|
⑤⑥⑦⑧ |⑦-⑧-|
54
②口④口 |①---|
口④③① |②-③-|
口口①口 |----|
口口口口 |④---|
55
②口口口 |①---|
口④口口 |②-③-|
④③①口 |----|
口①口口 |④---|
56
②口口① |①---|
口口口口 |②---|
口口口口 |③---|
④口口③ |④---|
57
⑤口口④ |①---|
口口①口 |----|
口口口口 |②-③-|
口③②口 |④-⑤-|
58
口口③口 |①---|
口④①③ |②-③-|
口口④口 |----|
②口口口 |④---|
59
口口口② |①---|
口④口口 |②-③-|
③①④口 |----|
口③口口 |④---|
60
①口口④ |①---|
口口口口 |②---|
口口口口 |③---|
②口口③ |④---|
61
口③②口 |①---|
口①口口 |----|
口口口口 |②-③-|
口⑤④口 |④-⑤-|
62
②口④口 |①---|
口④③① |②-③-|
口口①口 |----|
口口口口 |④---|
63
②口口口 |①---|
口④口口 |②-③-|
④③①口 |----|
口①口口 |④---|
64
②②①① |①---|
口口口口 |②---|
口口口口 |③---|
④④③③ |④---|
65
⑤口口④ |①---|
口①①口 |----|
口口口口 |②-③-|
口③②口 |④-⑤-|
66
口口③口 |①---|
口④①③ |②-③-|
口口④口 |----|
②口口口 |④---|
67
口口口② |①---|
口④口口 |②-③-|
③①④口 |----|
口③口口 |④---|
68
①①④④ |①---|
口口口口 |②---|
口口口口 |③---|
②②③③ |④---|
69
③口口③ |①---|
口①①口 |②---|
④口口④ |③---|
口②②口 |④---|
70
口⑤口② |①---|
①③⑤口 |②-③-|
口①口④ |④---|
口口口口 |⑤---|
71
口口口② |①---|
④口⑤口 |②-③-|
口①③⑤ |④---|
口口①口 |⑤---|
72
①①②② |①---|
口口口口 |②---|
口口口口 |③---|
③③④④ |④---|
73
④口口⑤ |①---|
口②③口 |②-③-|
⑥①①⑦ |④-⑤-|
口口口口 |⑥-⑦-|
74
口③口口 |①---|
③①⑤口 |②-③-|
口⑤口口 |④---|
口口④② |⑤---|
75
②④口口 |①---|
口口⑤口 |②-③-|
口⑤①③ |④---|
口口③口 |⑤---|
76
②②①① |①---|
口口口口 |②---|
口口口口 |③---|
③③④④ |④---|
77
④③③④ |①---|
口②②口 |②---|
口①①口 |③---|
口口口口 |④---|

不確定度: 0

最終更新:2017年08月03日 02:03