マホロバケーション
ももいろクローバーZ

ADVANCED

Level: 7
BPM: 145
Notes: 564

1
口口口口 |----|
口口口口 |----|
口口口口 |----|
口口口口 |----|
2
口口口口 |----|
口口口口 |----|
口口口口 |----|
口口口口 |----|
3
口口口口 |①-②-|
③③口口 |--③-|
④④②① |--④-|
⑤⑤口口 |--⑤-|
4
口口④口 |--①-|
口⑤③口 |②-③-|
口口②口 |④---|
口口①口 |⑤---|
5
口口口口 |①-②-|
口口口口 |③-④-|
①②③④ |⑤-⑥-|
⑧⑦⑥⑤ |⑦-⑧-|
6
口口口口 |①---|
口口口口 |----|
口①①口 |----|
口口口口 |----|
7
口口口口 |①--②|
口口口③ |--③-|
口口②口
口口口①

口口口口
口口口口
口④⑤口 |--④-|
口口口口 |--⑤-|
8
口口口口 |----|
③①①③ |①---|
口②②口 |②--③|
口口口口 |----|
9
口口口口 |①--②|
③口口口 |--③-|
口②口口
①口口口

口口口口
口口口口
口⑤④口 |--④-|
口口口口 |--⑤-|
10
口③口口 |----|
②④口② |①---|
口⑤口口 |②-③-|
口①①口 |④-⑤-|
11
口口口口 |①--②|
口口口③ |--③-|
口口②口
口口口①

口口口口
口口口口
口④⑤口 |--④-|
口口口口 |--⑤-|
12
口口口口 |--①-|
口③②① |②-③-|
口口口口
口口口口

口口口口
口口⑦⑦
口口口口 |④-⑤-|
口④⑤⑥ |⑥-⑦-|
13
口口口口 |①--②|
③口口口 |--③-|
口②④口 |--④-|
①⑤口口 |--⑤-|
14
口①①口 |----|
④②②⑤ |①-②-|
口③③口 |③---|
口口口口 |④-⑤-|
15
口口口口 |①---|
口①①口 |②-③-|
口口口口
口③②口

口口口口
口口⑥口
⑤⑦口④ |④-⑤-|
口口口口 |⑥-⑦-|
16
③⑦⑤① |①-②-|
④⑧⑥② |③-④-|
口口口口 |⑤-⑥-|
口口口口 |⑦-⑧-|
17
③④②① |①-②-|
口口口口 |③-④-|
⑦⑤⑤⑥ |⑤---|
口口口口 |⑥-⑦-|
18
③口口① |①-②-|
④口口② |③-④-|
口口口口
口口口口

口⑦⑤⑧
口口⑥口
口口口口 |⑤-⑥-|
口口口口 |⑦-⑧-|
19
①口②口 |①-②-|
③④⑤⑥ |③-④-|
口⑦⑦口 |⑤-⑥-|
口⑧口口 |⑦-⑧-|
20
口口口口 |①-②-|
口口口口 |③-④-|
口口④③
口口①②

口口口口
口⑤⑤口
口口口⑦ |--⑤-|
口⑥⑥口 |⑥-⑦-|
21
口口口口 |①-②-|
口口口⑧ |③-④-|
③②①口 |⑤-⑥-|
④⑤⑥⑦ |⑦-⑧-|
22
口口口口 |①-②-|
③②①口 |③-④-|
④口口口
口口口口

口口口口
口口⑥⑥
口⑤口口 |⑤-⑥-|
⑦⑦口口 |⑦---|
23
④④③③ |①-②-|
⑦⑦⑧⑧ |③-④-|
⑥⑥②② |⑤-⑥-|
⑤⑤①① |⑦-⑧-|
24
③④②① |①-②-|
口口⑤⑤ |③-④-|
口口口口 |⑤---|
⑥⑥口口 |⑥---|
25
④④③③ |①-②-|
⑦⑦⑧⑧ |③-④-|
⑥⑥②② |⑤-⑥-|
⑤⑤①① |⑦-⑧-|
26
①①①① |①---|
口口口口 |----|
口口口口 |----|
口口口口 |----|
27
口口口口 |①---|
③③①① |②-③-|
③③①①
口②②口

④④④④
口口口口
口口口口 |--④-|
⑤⑤⑤⑤ |--⑤-|
28
口口口口 |----|
口口口口 |----|
口口口口 |----|
口口口口 |----|
29
口口口③ |①---|
口口口② |--②-|
口口口口 |----|
口口口① |--③-|
30
②口口口 |①--②|
③口①口 |-③-④|
④口口口 |----|
口口口口 |----|
31
口口③口 |①---|
②口④口 |--②-|
口口⑤口 |--③-|
①口口口 |④-⑤-|
32
①④④口 |①-②-|
⑤②口⑤ |③④-⑤|
口③口口 |----|
口口口口 |----|
33
口口口③ |①---|
口口口② |--②-|
口口口口 |----|
口口口① |--③-|
34
②④④口 |①-②-|
③口①口 |③--④|
口口口口
口口口口

⑥口口⑥
口⑤口口
口口⑤口 |---⑤|
口口口口 |--⑥-|
35
口口口口 |①--②|
③③①① |--③-|
口口口口
口口②②

口口口口
口口⑤口
口⑤口口 |-④--|
④④口口 |⑤---|
36
③③①① |①--②|
口⑤⑤口 |--③-|
④④②② |-④--|
口口口口 |⑤---|
37
③③①① |①--②|
口口⑥⑤ |--③-|
④④②② |-④--|
口口口口 |⑤-⑥-|
38
①口口① |①---|
③③③③ |②---|
口②②口 |③---|
口口口口 |----|
39
口口口口 |----|
②③④⑤ |----|
口①①口 |--①-|
口口口口 |②③④⑤|
40
③①①③ |①---|
⑤⑥⑦⑧ |②--③|
口④④口 |--④-|
口②②口 |⑤⑥⑦⑧|
41
③①①③ |①---|
⑤⑥⑦⑧ |②--③|
口④④口 |--④-|
口②②口 |⑤⑥⑦⑧|
42
③①①③ |①---|
口⑥口④ |②--③|
口口⑤口 |--④-|
口②②口 |⑤-⑥-|
43
口②①③ |①---|
⑤⑥⑦⑧ |②--③|
口④④口 |--④-|
③①②口 |⑤⑥⑦⑧|
44
③①①③ |①---|
⑤⑥⑦⑧ |②--③|
口④④口 |--④-|
口②②口 |⑤⑥⑦⑧|
45
⑥①①口 |①---|
口⑤④口 |②---|
口②②口 |③-④-|
口口口③ |⑤-⑥-|
46
口口①① |①---|
口口口口 |----|
口②口口 |----|
口口口口 |--②-|
47
口②口口 |①---|
口口①口 |②---|
口口口口
口口②口

口口口③
⑤⑥⑦⑧
口④④口 |③-④-|
③口口口 |⑤⑥⑦⑧|
48
③①①③ |①---|
⑤⑥⑦⑧ |②--③|
口④④口 |--④-|
口②②口 |⑤⑥⑦⑧|
49
③①①③ |①---|
⑤⑥⑦⑧ |②--③|
口④④口 |--④-|
口②②口 |⑤⑥⑦⑧|
50
口①①口 |①---|
口⑥⑤口 |②--③|
口③③④ |--④-|
口②②口 |⑤-⑥-|
51
③口②口 |①---|
⑤⑥⑦⑧ |②--③|
①④④口 |--④-|
口②口③ |⑤⑥⑦⑧|
52
③①①③ |①---|
⑤⑥⑦⑧ |②--③|
口④④口 |--④-|
口②②口 |⑤⑥⑦⑧|
53
⑥①①口 |①---|
口⑤④口 |②---|
口口口口 |③-④-|
口②②③ |⑤-⑥-|
54
口口①① |①---|
口口口口 |----|
口②口口 |----|
口口口口 |--②-|
55
⑤②口口 |①---|
口⑤①③ |②---|
④口⑥口 |③-④-|
口口②⑥ |⑤-⑥-|
56
④④①① |①--②|
⑥⑥③③ |--③-|
口口口口 |④--⑤|
口②⑤口 |--⑥-|
57
④④①① |①--②|
口口③③ |--③-|
口口口口 |④---|
②⑤⑤口 |⑤---|
58
口口①① |①--②|
口口③③ |--③-|
口口口口
②口口口

④④口⑥
口口口口
口口口口 |④--⑤|
口口口⑤ |--⑥-|
59
③②③口 |①-②-|
口口①口 |③---|
口口口口 |④---|
口④口④ |----|
60
口口口口 |①--②|
④④①① |--③-|
⑥⑥③③ |④--⑤|
口②⑤口 |--⑥-|
61
⑤④④⑤ |①--②|
口口①① |--③-|
口口③③ |④---|
口②口口 |⑤---|
62
口口口口 |①--②|
口口①① |--③-|
口口③③
口②口口

口口⑥⑥
④④口⑥
口口口口 |④--⑤|
口口⑤口 |--⑥-|
63
①①口口 |--①-|
①②②口 |--②-|
口②②口
口口口口

口口口口
④口口④
口口口口 |--③-|
口③③口 |④---|
64
口口口口 |①---|
口口口口 |②---|
①②③④ |③---|
口口口口 |④---|
65
口口口口 |①-②-|
⑤③⑦① |③-④-|
④⑥②⑧ |⑤-⑥-|
口口口口 |⑦-⑧-|
66
口①①口 |①---|
口口口口 |②---|
口②③④ |③---|
口口口口 |④---|
67
④口①① |--①-|
口③②② |②---|
口口③口 |③--④|
口⑤⑤④ |--⑤-|
68
口①①口 |①---|
口口口口 |②---|
口②③④ |③---|
口口口口 |④---|
69
口口口口 |①-②-|
⑤③⑦① |③-④-|
④⑥②⑧ |⑤-⑥-|
口口口口 |⑦-⑧-|
70
口①①口 |①---|
口口口口 |②---|
口②③④ |③---|
口口口口 |④---|
71
口口口口 |①--②|
口口①① |-③-④|
③④口口
口口②②

⑥⑥⑥⑥
口⑥⑥口
口口⑤口 |-⑤--|
口口口口 |⑥---|

不確定度: 0

最終更新:2017年08月03日 02:02