エイリアンエイリアン
ナユタン星人

BASIC

Level: 3
BPM: 152
Notes: 216

1
口口口口 |----|
口口口口 |----|
口口口口 |----|
口口口口 |----|
2
口口口口 |----|
口口口口 |----|
口口口口 |----|
口口口口 |----|
3
口口口口 |----|
口口口口 |----|
口口口口 |----|
口口口口 |----|
4
①②口口 |①---|
口口口口 |----|
口口口口 |②---|
口口口口 |----|
5
口口①② |①---|
口口口口 |----|
口口口口 |②---|
口口口口 |----|
6
口口口口 |①---|
口口②① |----|
口口口口 |②---|
口口口口 |----|
7
口口口口 |①---|
②①口口 |----|
口口口口 |②---|
口口口口 |----|
8
口①②口 |①---|
口口口口 |----|
口口口口 |②---|
口口口口 |----|
9
口口口口 |①---|
口①②口 |----|
口口口口 |②---|
口口口口 |----|
10
①口口② |①---|
口口口口 |----|
口口口口 |②---|
口口口口 |----|
11
口口口口 |①---|
①口口② |----|
口口口口 |②---|
口口口口 |----|
12
口口口口 |①---|
口口口口 |----|
口①②口 |②---|
口口口口 |----|
13
口口口口 |①---|
口口口口 |----|
口口口口 |②---|
口①②口 |----|
14
口口口口 |①---|
口口口口 |----|
①口口② |②---|
口口口口 |----|
15
口口口口 |①---|
口口口口 |----|
口口口口 |②---|
①口口② |----|
16
口②口口 |①---|
口口口口 |----|
口①①口 |②---|
口口口口 |----|
17
口口①② |①---|
口口口口 |----|
口口口口 |②---|
口口口口 |----|
18
口口口口 |①---|
口口②① |----|
口口口口 |②---|
口口口口 |----|
19
口口口口 |①---|
②①口口 |----|
口口口口 |②---|
口口口口 |----|
20
口①②口 |①---|
口口口口 |----|
口口口口 |②---|
口口口口 |----|
21
口口口口 |①---|
口①②口 |----|
口口口口 |②---|
口口口口 |----|
22
①口口② |①---|
口口口口 |----|
口口口口 |②---|
口口口口 |----|
23
口口口口 |①---|
①口口② |----|
口口口口 |②---|
口口口口 |----|
24
口口口口 |①---|
口口口口 |----|
口①②口 |②---|
口口口口 |----|
25
口口口口 |①---|
口口口口 |----|
口口口口 |②---|
口①②口 |----|
26
口口口口 |①---|
口口口口 |----|
①口口② |②---|
口口口口 |----|
27
口口口口 |①---|
口口口口 |----|
口口口口 |②---|
①口口② |----|
28
口口口口 |①---|
口口口口 |----|
口①①口 |----|
口口口口 |----|
29
①口口② |①---|
口口口口 |----|
口口口口 |②---|
口口口口 |----|
30
口口口口 |①---|
①口口② |----|
口口口口 |②---|
口口口口 |----|
31
口口口口 |①---|
口口口口 |----|
①口口② |②---|
口口口口 |----|
32
口①口口 |①---|
口②口口 |②---|
口③口口 |③---|
口④口口 |④---|
33
口口①口 |①---|
口口②口 |②---|
口口③口 |③---|
口口④口 |④---|
34
口口口口 |①---|
①②④③ |②---|
口口口口 |③---|
口口口口 |④---|
35
口口口口 |①---|
口口口口 |②---|
①②④③ |③---|
口口口口 |④---|
36
口①口口 |①---|
口②口口 |②---|
口③口口 |③---|
口④口口 |④---|
37
口口①口 |①---|
口口②口 |②---|
口口③口 |③---|
口口④口 |④---|
38
口口口口 |①---|
①②④③ |②---|
口口口口 |③---|
口口口口 |④---|
39
口口口口 |①---|
②口口② |----|
口①①口 |②---|
口口口口 |----|
40
口①口口 |①---|
口②口口 |②---|
口③口口 |③---|
口④口口 |④---|
41
口口①口 |①---|
口口②口 |②---|
口口③口 |③---|
口口④口 |④---|
42
口口口口 |①---|
①②④③ |②---|
口口口口 |③---|
口口口口 |④---|
43
口口口口 |①---|
口口口口 |②---|
①②④③ |③---|
口口口口 |④---|
44
口①口口 |①---|
口②口口 |②---|
口③口口 |③---|
口④口口 |④---|
45
口口①口 |①---|
口口②口 |②---|
口口③口 |③---|
口口④口 |④---|
46
口口口口 |①---|
①②④③ |②---|
口口口口 |③---|
口口口口 |④---|
47
口口口口 |①---|
口②②口 |----|
口①①口 |②---|
口口口口 |----|
48
①②口① |①---|
口口口口 |----|
口口口口 |②---|
口口口口 |----|
49
口口①② |①---|
口口口口 |----|
口口口口 |②---|
口口口口 |----|
50
口口口口 |①---|
口口②① |----|
口口口口 |②---|
口口口口 |----|
51
口口口口 |①---|
②①口口 |----|
口口口口 |②---|
口口口口 |----|
52
②口口① |①---|
口口口口 |----|
口口口口 |②---|
口口口口 |----|
53
口②①口 |①---|
口口口口 |----|
口口口口 |②---|
口口口口 |----|
54
口口口口 |①---|
②口口① |----|
口口口口 |②---|
口口口口 |----|
55
口口口口 |①---|
口②①口 |----|
口口口口 |②---|
口口口口 |----|
56
口口口口 |①---|
口口口口 |----|
②口口① |②---|
口口口口 |----|
57
口口口口 |①---|
口口口口 |----|
口②①口 |②---|
口口口口 |----|
58
口口口口 |①---|
口口口口 |----|
口口口口 |②---|
②口口① |----|
59
口口口口 |①---|
口②②口 |----|
口①①口 |②---|
口口口口 |----|
60
口口口口 |----|
口口口口 |----|
口口口口 |----|
口口口口 |----|
61
口①口口 |①---|
口②口口 |②---|
口③口口 |③---|
口④口口 |④---|
62
口口①口 |①---|
口口②口 |②---|
口口③口 |③---|
口口④口 |④---|
63
口口口口 |①---|
①②④③ |②---|
口口口口 |③---|
口口口口 |④---|
64
口口口口 |①---|
口口口口 |②---|
①②④③ |③---|
口口口口 |④---|
65
口①口口 |①---|
口②口口 |②---|
口③口口 |③---|
口④口口 |④---|
66
口口①口 |①---|
口口②口 |②---|
口口③口 |③---|
口口④口 |④---|
67
口口口口 |①---|
①②④③ |②---|
口口口口 |③---|
口口口口 |④---|
68
口口口口 |①---|
②口口② |----|
口①①口 |②---|
口口口口 |----|
69
口①口口 |①---|
口②口口 |②---|
口③口口 |③---|
口④口口 |④---|
70
口口①口 |①---|
口口②口 |②---|
口口③口 |③---|
口口④口 |④---|
71
口口口口 |①---|
①②④③ |②---|
口口口口 |③---|
口口口口 |④---|
72
口口口口 |①---|
口口口口 |②---|
①②④③ |③---|
口口口口 |④---|
73
口①口口 |①---|
口②口口 |②---|
口③口口 |③---|
口④口口 |④---|
74
口口①口 |①---|
口口②口 |②---|
口口③口 |③---|
口口④口 |④---|
75
口口口口 |①---|
①②④③ |②---|
口口口口 |③---|
口口口口 |④---|
76
口口口口 |①---|
口②②口 |----|
口①①口 |②---|
口口口口 |----|
77
①①①① |①---|
口口口口 |----|
口口口口 |----|
口口口口 |----|

不確定度: 0

最終更新:2017年08月03日 02:02