エイリアンエイリアン
ナユタン星人

ADVANCED

Level: 7
BPM: 152
Notes: 538

1
口口口口 |----|
口口口口 |----|
口口口口 |----|
口口口口 |----|
2
口口口口 |----|
口口口口 |----|
口口口口 |----|
口口口口 |----|
3
口口口口 |----|
口口口口 |----|
口口口口 |----|
口口口口 |----|
4
口口口口 |①-②-|
口②⑥口 |③-④-|
①⑦③⑤ |⑤-⑥-|
⑧口口④ |⑦-⑧-|
5
口口口⑤ |①-②-|
⑧②⑥④ |③-④-|
①⑦③口 |⑤-⑥-|
口口口口 |⑦-⑧-|
6
口口口口 |①-②-|
口②⑥口 |③-④-|
①⑦③⑤ |⑤-⑥-|
⑧口口④ |⑦-⑧-|
7
口口口口 |①-②-|
口②口④ |③-④-|
①口③口
口口口口

口口口口
口⑧口口
口⑦口⑤ |⑤-⑥-|
口⑥口口 |⑦-⑧-|
8
口口①① |①---|
②口口④ |--②-|
③口口口 |③---|
口口口口 |--④-|
9
口口口口 |①-②-|
口口口口 |③-④-|
口③④①
口②口口

口口口⑦
口口⑤口
⑥口口口 |⑤-⑥-|
口⑧口口 |⑦-⑧-|
10
①①口口 |①---|
④口口② |--②-|
口口口③ |③---|
口口口口 |--④-|
11
口口口口 |①-②-|
口口口口 |③-④-|
①④③口
口口②口

⑦口口口
口⑤口口
口口口⑥ |⑤-⑥-|
口口⑧口 |⑦-⑧-|
12
口口①① |①---|
②口口④ |--②-|
③口口口 |③---|
口口口口 |--④-|
13
口口口⑦ |①-②-|
⑥口⑤口 |③-④-|
⑧③④① |⑤-⑥-|
口②口口 |⑦-⑧-|
14
④口口④ |①---|
口③③口 |②---|
口②②口 |③---|
口①①口 |④---|
15
④口⑥口 |--①-|
口⑤口⑦ |②-③-|
①②③口 |④-⑤-|
口口口口 |⑥-⑦-|
16
口口口口 |①-②-|
口⑥②口 |③-④-|
⑤③⑦① |⑤-⑥-|
④口口⑧ |⑦-⑧-|
17
⑤口口口 |①-②-|
④⑥②⑧ |③-④-|
口③⑦① |⑤-⑥-|
口口口口 |⑦-⑧-|
18
口口口口 |①-②-|
口⑥②口 |③-④-|
⑤③⑦① |⑤-⑥-|
④口口⑧ |⑦-⑧-|
19
口口口口 |①-②-|
④口②口 |③-④-|
口③口①
口口口口

口口口口
口口⑧口
⑤口⑦口 |⑤-⑥-|
口口⑥口 |⑦-⑧-|
20
①①口口 |①---|
④口口② |--②-|
口口口③ |③---|
口口口口 |--④-|
21
口口口口 |①-②-|
口口口口 |③-④-|
①④③口
口口②口

⑦口口口
口⑤口口
口口口⑥ |⑤-⑥-|
口口⑧口 |⑦-⑧-|
22
口口①① |①---|
②口口④ |--②-|
③口口口 |③---|
口口口口 |--④-|
23
口口口口 |①-②-|
口口口口 |③-④-|
口③④①
口②口口

口口口⑦
口口⑤口
⑥口口口 |⑤-⑥-|
口⑧口口 |⑦-⑧-|
24
①①口口 |①---|
④口口② |--②-|
口口口③ |③---|
口口口口 |--④-|
25
⑦口口口 |①-②-|
口⑤⑥口 |③-④-|
①④③⑧ |⑤-⑥-|
口口②口 |⑦-⑧-|
26
④口口④ |①---|
口③③口 |②---|
口②②口 |③---|
口①①口 |④---|
27
口⑥口④ |--①-|
⑦口⑤口 |②-③-|
口③②① |④-⑤-|
口口口口 |⑥-⑦-|
28
口口①口 |①---|
口②口口 |②---|
口口③口 |③---|
口④口口 |④---|
29
口①口口 |①---|
口口②口 |②---|
口③口口 |③---|
口口④口 |④---|
30
口①②口 |①-②-|
口③④口 |③-④-|
口⑤⑥口 |⑤-⑥-|
口⑦⑧口 |⑦-⑧-|
31
口口⑤⑤ |①-②-|
口口口口 |③-④-|
③口口④ |⑤---|
①口口② |----|
32
①①②口 |①---|
口口①① |②-③-|
口⑥⑤④ |--④-|
口③口口 |⑤-⑥-|
33
⑤②①① |①---|
①①口口 |②-③-|
口口口口 |④---|
口④③口 |--⑤-|
34
口口⑥口 |①-②-|
①口⑦② |③-④-|
口④口③ |⑤---|
口⑤口口 |⑥-⑦-|
35
口口⑥口 |①-②-|
口②口口 |③-④-|
①⑤⑤④ |⑤---|
口口③口 |--⑥-|
36
⑧①口口 |①-②-|
⑦②③口 |③-④-|
⑥⑤④口 |⑤-⑥-|
口口口口 |⑦-⑧-|
37
口③①① |①---|
口④④口 |②-③-|
口②口口 |④---|
口⑤⑤口 |--⑤-|
38
口①口口 |--①-|
⑦②口⑤ |②-③-|
⑥③口④ |④-⑤-|
口口口口 |⑥-⑦-|
39
①口①口 |--①-|
口②口口 |②---|
口③口③ |③-④-|
口口④口 |----|
40
①①②口 |①---|
口口①① |②-③-|
口⑥⑤④ |--④-|
口③口口 |⑤-⑥-|
41
⑤②①① |①---|
①①口口 |②-③-|
口口口口 |④---|
口④③口 |--⑤-|
42
⑧口⑥口 |①-②-|
①口⑦② |③-④-|
口④口③ |⑤-⑥-|
口⑤口口 |⑦-⑧-|
43
口口⑥口 |①-②-|
口①口口 |③-④-|
②⑤⑤④ |⑤---|
口口③口 |--⑥-|
44
口①口口 |①-②-|
口②③口 |③-④-|
⑥⑤④口 |⑤-⑥-|
⑦⑧口口 |⑦-⑧-|
45
口①②口 |①---|
③②①③ |②---|
③口口③ |③---|
口口④口 |--④-|
46
口②口口 |①-②-|
⑧③口⑥ |③-④-|
⑦④①⑤ |⑤-⑥-|
口口口口 |⑦-⑧-|
47
①口①口 |--①-|
口②口口 |②---|
口口口口
口口口口

⑤口口⑤
口口口口
口③口③ |③-④-|
口口④口 |--⑤-|
48
口口口口 |①---|
②①①口 |----|
口③④口 |②-③-|
口口口⑤ |④-⑤-|
49
④③口① |①-②-|
口口②⑧ |③-④-|
⑤口⑦口 |⑤-⑥-|
口⑥口口 |⑦-⑧-|
50
口③⑦口 |①-②-|
④⑥②⑧ |③-④-|
⑤口口① |⑤-⑥-|
口口口口 |⑦-⑧-|
51
口③口口 |①-②-|
④⑥②⑦ |③-④-|
⑤口口① |⑤-⑥-|
口口口口 |--⑦-|
52
口口口口 |①-②-|
口⑥③口 |③---|
口⑤②口 |④-⑤-|
口④①口 |⑥---|
53
口④口① |①-②-|
②口口⑤ |③-④-|
口口③⑥ |⑤-⑥-|
口口口⑦ |⑦---|
54
口口口口 |①-②-|
口③⑥口 |③---|
口②⑤口 |④-⑤-|
口①④口 |⑥---|
55
①口④口 |①-②-|
⑤口口口 |③-④-|
⑥口口② |⑤-⑥-|
⑦③口口 |⑦---|
56
口口口口 |①-②-|
口⑥③口 |③---|
口⑤②口 |④-⑤-|
口④①口 |⑥---|
57
口口口③ |①-②-|
②口口⑤ |③-④-|
口④口⑥ |⑤-⑥-|
口口①⑦ |⑦---|
58
①口口④ |①-②-|
⑤口口口 |③-④-|
口口口口 |⑤-⑥-|
⑦③②⑥ |⑦---|
59
①①③③ |①-②-|
口④④口 |③-④-|
口口②② |⑤---|
口⑤⑤口 |----|
60
口口口口 |--①-|
口口口口 |②---|
③⑤⑤① |③-④-|
口④②口 |⑤---|
61
①①②口 |①---|
口口①① |②-③-|
口⑥⑤④ |--④-|
口③口口 |⑤-⑥-|
62
⑤②①① |①---|
①①口口 |②-③-|
口口口口 |④---|
口④③口 |--⑤-|
63
口口⑥口 |①-②-|
①口⑦② |③-④-|
⑧④口③ |⑤-⑥-|
口⑤口口 |⑦-⑧-|
64
②口⑥口 |①-②-|
口①口③ |③-④-|
口口④口 |⑤---|
口⑤口口 |--⑥-|
65
⑧①口口 |①-②-|
⑦②③口 |③-④-|
⑥⑤④口 |⑤-⑥-|
口口口口 |⑦-⑧-|
66
口②①① |①---|
口④④⑤ |②-③-|
口③口口 |④---|
口口口口 |--⑤-|
67
口②口① |①-②-|
⑧③口⑥ |③-④-|
⑦④口⑤ |⑤-⑥-|
口口口口 |⑦-⑧-|
68
①口①口 |--①-|
口②口口 |②---|
口③口③ |③-④-|
口口④口 |----|
69
①①②口 |①---|
口口①① |②-③-|
口⑥⑤④ |--④-|
口③口口 |⑤-⑥-|
70
⑤②①① |①---|
①①口口 |②-③-|
口口口口 |④---|
口④③口 |--⑤-|
71
口口⑥口 |①-②-|
①口⑦② |③-④-|
⑧④口③ |⑤-⑥-|
口⑤口口 |⑦-⑧-|
72
②口⑥口 |①-②-|
口①口③ |③-④-|
口口④口 |⑤---|
口⑤口口 |--⑥-|
73
口①口口 |①-②-|
口②③口 |③-④-|
⑥⑤④口 |⑤-⑥-|
⑦⑧口口 |⑦-⑧-|
74
口①②口 |①---|
③②①③ |②---|
③口口③ |③---|
口口④口 |--④-|
75
口②口口 |①-②-|
⑧③口⑥ |③-④-|
⑦④①⑤ |⑤-⑥-|
口口口口 |⑦-⑧-|
76
①口①口 |--①-|
口②口口 |②---|
口口口口
口口口口

⑤口口⑤
口口口口
口③口③ |③-④-|
口口④口 |--⑤-|
77
口口口口 |①---|
①①①① |----|
口口口口 |----|
口口口口 |----|

不確定度: 0

最終更新:2017年08月03日 02:01