インフェルノ
9mm Parabellum Bullet

ADVANCED

Level: 7
BPM: 195
Notes: 398

1
口口口口 |----|
口口口口 |----|
口口口口 |----|
口口口口
2
口口口口 |----|
口口口口 |----|
口口口口 |----|
口口口口
3
口口口口 |①---|
②口口② |--②-|
口口口口 |----|
口①①口
4
口③口口 |①---|
口口②口 |②---|
口①口口 |③---|
口口口口
5
口口口口 |①---|
②口口② |--②-|
口口口口 |----|
口①①口
6
口③口口 |①---|
口口②口 |②---|
口①口口 |③---|
口口口口
7
口口口口 |①---|
②口口② |--②-|
口口口口 |----|
①口口①
8
口③口口 |①---|
口口②口 |②---|
口①口口 |③---|
口口口口
9
口口口口 |①---|
②口口② |--②-|
口口口口 |----|
①口口①
10
口①口口 |①---|
口口②口 |②---|
口③口口 |③---|
口口口口
11
口③①口 |①---|
③口口① |②---|
②口口口 |③---|
口②口口
12
口口口口 |①---|
口②②口 |②---|
口③③① |③---|
口口①口
13
①口口① |①---|
口口口③ |--②-|
口口口③ |--③-|
口②②口
14
口口口口 |①---|
①口口口 |----|
①口口口 |②---|
②口口口
15
口口口③ |①---|
口口②口 |②---|
口①口口 |③---|
口口口口
16
①①口口 |①---|
口口口口 |----|
口口口口 |②---|
口口口②
17
③口口口 |①---|
口②口口 |②---|
口口①口 |③---|
口口口口
18
口口①① |①---|
口口口口 |----|
口口口口 |②---|
口②②口
19
口②口口 |①-②-|
①④③① |③-④-|
口⑥⑤口 |⑤-⑥-|
口口口口
20
②口口① |①-②-|
④口口③ |③-④-|
⑥口口⑤ |⑤-⑥-|
口口口口
21
口②①口 |①-②-|
口④③口 |③-④-|
口⑥⑤口 |⑤-⑥-|
口口口口
22
①口口① |①---|
口口口口 |----|
口口口口 |----|
口口口口
23
口②①口 |①-②-|
口④③口 |③-④-|
口⑥⑤口 |⑤-⑥-|
口口口口
24
口口口口 |①-②-|
②口口① |③-④-|
④口口③ |⑤-⑥-|
⑥口口⑤
25
口口口口 |①-②-|
口②①口 |③-④-|
口④③口 |⑤-⑥-|
口⑥⑤口
26
口口口口 |①---|
①口口① |----|
口口口口 |----|
口口口口
27
口口口口 |----|
口口口① |①---|
口口②口 |②---|
口口口口
28
口口口口 |①---|
口②③口 |②-③-|
口④口口 |--④-|
口①口口
29
口口口口 |①---|
②③口② |--②-|
口口①口 |--③-|
口口口口
30
口口口口 |①---|
口口①口 |----|
口③口口 |②-③-|
口②口口
31
口口口口 |①---|
口①口口 |----|
口口③口 |②-③-|
口口②口
32
口②②口 |①---|
口口①口 |----|
口口口口 |②---|
口口口口
33
①口口① |①---|
口②③口 |②-③-|
口④口口 |--④-|
口口口口
34
口口口口 |①---|
口口口口 |----|
口口①口 |----|
口口口口
35
口口口④ |①-②-|
③口口口 |③---|
②口口口 |--④-|
①口口口
36
口口口口 |①-②-|
口口口① |③---|
口口口② |----|
口口口③
37
口口口④ |①-②-|
③口口口 |③---|
②口口口 |--④-|
①口口口
38
口口口口 |①-②-|
口口口① |③---|
口口口② |④-⑤-|
口④⑤③
39
口口口口 |①---|
口①口口 |----|
口②③口 |②-③-|
口口口口
40
口①②② |①---|
口口口口 |----|
口口口口 |②---|
口口口口
41
口口口口 |①---|
口口①① |②-③-|
口②③口 |--④-|
口④口口
42
口口口口 |①---|
口口口口 |----|
口口口口 |----|
口口①口
43
口口口口 |----|
口口口口 |①-②-|
口口口口 |③-④-|
①②③④
44
口口口口 |①---|
②③口② |②---|
口①①口 |--③-|
口口口口
45
口口口口 |①---|
口口①口 |--②-|
②③口② |--③-|
口口口口
46
口口口口 |①---|
口口口口 |----|
口口①口 |----|
口口口口
47
口口口口 |----|
口口口口 |①-②-|
口口口口 |③-④-|
④③②①
48
口口口口 |①---|
②③口② |②---|
口①①口 |--③-|
口口口口
49
②③口② |①---|
口口①口 |--②-|
口口口口 |--③-|
口口口口
50
口口①口 |①---|
口口口口 |----|
口口口口 |----|
口口口口
51
口口口口 |①---|
口①①口 |----|
口①①口 |----|
口口口口
52
口口口口 |----|
口口口① |①---|
口口口② |②---|
口口口口
53
①口口① |①---|
口②③口 |②-③-|
口口口口 |----|
口口口口
54
口口口口 |----|
口口口口 |----|
口口口口 |----|
口口口口
55
口口口口 |①---|
①口口口 |②---|
②口口口 |③---|
③口口口
56
口口口口 |①---|
口口口① |②---|
口口口② |③---|
口口口③
57
①口口① |①---|
口②③口 |②-③-|
口口口口 |----|
口口口口
58
口口口口 |----|
口口口口 |----|
口口口口 |----|
口口口口
59
口口口口 |①-②-|
①②③④ |③-④-|
口口⑥⑤ |⑤-⑥-|
口口口口
60
口口口口 |①-②-|
口口口口 |③-④-|
②①口口 |⑤-⑥-|
③④⑤⑥
61
口口口口 |①-②-|
②①①② |--③-|
④③③④ |④---|
口口口口
62
②②②② |①---|
口②②口 |②---|
口口口口 |----|
口①①口
63
口口口口 |①---|
口口口③ |②---|
口②①口 |③---|
②口③①
64
②口口② |①---|
①口口口 |②---|
口口口口 |③---|
③①口③
65
③①①口 |①---|
口③口口 |--②-|
②口口② |--③-|
口口口口
66
口口口① |①---|
口口①口 |----|
口口口口 |②---|
口口口②
67
③口口口 |①---|
口②口口 |②---|
口口①口 |③---|
口口口口
68
口口①① |①---|
口口口口 |----|
口口口口 |②---|
②口口口
69
口口口③ |①---|
口口②口 |②---|
口①口口 |③---|
口口口口
70
①①口口 |①---|
口口口口 |----|
口口口口 |----|
口口口口
71
口口口② |①---|
口口②口 |②---|
口③①口 |③---|
③口口①
72
①③③口 |①---|
②①口② |②---|
口口口口 |③---|
口口口口
73
②口口② |①---|
口口口口 |--②-|
口③口口 |--③-|
③①①口
74
口口口口 |①---|
口口口口 |----|
口口①口 |②---|
口口②①
75
口口口③ |①---|
口口②口 |②---|
口口口① |③---|
口口口口
76
①①口口 |①---|
口口口口 |----|
口口口口 |②---|
口②口口
77
③口口口 |①---|
口②口口 |②---|
①口口口 |③---|
口口口口
78
口口①① |①---|
口口口口 |----|
口口口口 |----|
口口口口
79
口口口口 |----|
口口口口 |①-②-|
口③④口 |③-④-|
口①②口
80
①口口① |①---|
口口口口 |②---|
②口口② |----|
口口口口
81
口口口口 |----|
口口口口 |①-②-|
口③④口 |③-④-|
口①②口
82
①口口① |①---|
口口口口 |②---|
②口口② |----|
口口口口
83
口口口② |①---|
口③①口 |②---|
口口②口 |③---|
③口口①
84
①口口口 |①---|
③口口③ |②---|
口①口口 |③---|
口②②口
85
口①①口 |①---|
③口口口 |--②-|
③口口口 |--③-|
口②②口
86
口口口口 |①---|
口口口① |----|
口口口① |----|
口口口口
87
口①②口 |①-②-|
口③④口 |③-④-|
口⑤⑥口 |⑤-⑥-|
口口口口
88
①口口② |①-②-|
③口口④ |③-④-|
⑤口口⑥ |⑤-⑥-|
口口口口
89
口口口口 |①-②-|
口①②口 |③-④-|
口③④口 |⑤-⑥-|
口⑤⑥口
90
口口口口 |①---|
①口口① |----|
口口口口 |----|
口口口口
91
①口口② |①-②-|
③口口④ |③-④-|
⑤口口⑥ |⑤-⑥-|
口口口口
92
口口口口 |①-②-|
口①②口 |③-④-|
口③④口 |⑤-⑥-|
口⑤⑥口
93
口口口口 |①-②-|
①口口② |③-④-|
③口口④ |⑤-⑥-|
⑤口口⑥
94
口①①口 |①---|
口口口口 |----|
口口口口 |----|
口口口口
95
口口口口 |①---|
②口口② |--②-|
口口口口 |----|
口①①口
96
③口口③ |①---|
口②②口 |②---|
口①①口 |③---|
口口口口
97
口①②口 |①-②-|
①口口② |③-④-|
③⑤⑥④ |⑤-⑥-|
⑤③④⑥
98
①口口① |①---|
口①①口 |----|
口口口口 |----|
口口口口

不確定度: 0

最終更新:2017年08月03日 02:00