eyes
小野秀幸

BASIC

Level: 3
BPM: 300
Notes: 202

实际BPM: 150
1
口口口口 |----|
口口口口 |----|
口口口口 |----|
口口口口 |----|
2
①④③② |----|
口口口口 |①---|
口口口口 |--②-|
口口口口 |③-④-|
3
口口口口 |①---|
①口③② |--②-|
④口口口 |③-④-|
口口口口 |----|
4
口口口口 |①-②-|
口口口口 |③-④-|
口③②① |----|
④口⑥⑤ |⑤-⑥-|
5
①④③② |①---|
⑤口口口 |--②-|
口口口口 |③-④-|
口口口口 |⑤---|
6
口口口口 |--①-|
口口②① |②-③-|
③口⑤④ |----|
口口口口 |④-⑤-|
7
⑤口口口 |①-②-|
口口口口 |----|
口①口口 |③-④-|
②口④③ |⑤---|
8
口口口① |①---|
③②②④ |②---|
⑤口口口 |③-④-|
口口口口 |--⑤-|
9
口口口口 |-①--|
口③③口 |②---|
口④④① |③---|
②口口口 |④---|
10
①口口② |①-②-|
③口口④ |--③-|
⑤口口口 |-④--|
口口口口 |⑤---|
11
③口口④ |①---|
⑤②②口 |②---|
口口口① |③-④-|
口口口口 |--⑤-|
12
口口口口 |-①--|
口口口① |----|
口口口口 |----|
口口口口 |----|
13
口①②口 |----|
口③口口 |①---|
口口口口 |②---|
口口口口 |③---|
14
口口口口 |①---|
口口①口 |----|
口口口口 |--②-|
口②②口 |----|
15
①口口② |①---|
口口口口 |--②-|
口口口口 |----|
口口口口 |----|
16
口口口口 |----|
口口口口 |----|
口口口口 |----|
口口口口 |----|
17
口①②口 |----|
口③口口 |①---|
口口口口 |②---|
口口口口 |③---|
18
口口口口 |①---|
口口①口 |----|
口口口口 |--②-|
口②②口 |----|
19
①口口② |①---|
③口口口 |--②-|
口口口口 |----|
口口口口 |--③-|
20
口口口口 |----|
口口口① |--①-|
口口口口 |----|
口口口口 |----|
21
口①②口 |----|
口③口口 |①---|
口口口口 |②---|
口口口口 |③---|
22
口口口口 |①---|
口口①口 |----|
口口口口 |--②-|
口②②口 |----|
23
①口口② |①---|
口口口口 |--②-|
口口口口 |----|
口口口口 |----|
24
口口口口 |----|
口口口口 |----|
口口口口 |----|
口口口口 |----|
25
口①②口 |----|
口③口口 |①---|
口口口口 |②---|
口口口口 |③---|
26
口口口口 |①---|
口口①口 |----|
口口口口 |--②-|
口②②口 |----|
27
①口口② |①---|
③口口口 |--②-|
口口口口 |----|
口口口口 |--③-|
28
口口口口 |----|
口口口① |--①-|
口口口口 |----|
口口口口 |----|
29
①口口② |----|
口口口口 |①---|
口口口口 |--②-|
口口口口 |----|
30
口口口口 |①---|
口③口口 |--②-|
口口口口 |----|
①口口② |③---|
31
口口口口 |①---|
口口①口 |②---|
口②③口 |③---|
口口口口 |----|
32
口口口口 |----|
口口口口 |----|
口口口口 |----|
口口口口 |----|
33
①口口② |----|
口口口口 |①---|
口口口口 |--②-|
口口口口 |----|
34
口口口口 |①---|
口③口口 |--②-|
口口口口 |----|
①口口② |③---|
35
口口口口 |①---|
口口①口 |②---|
口②③口 |③---|
口口口口 |----|
36
口口口口 |----|
口口口口 |----|
口口口口 |----|
口口口口 |----|
37
①口口② |----|
口口口口 |①---|
口口口口 |--②-|
口口口口 |----|
38
口口口口 |①---|
口③口口 |--②-|
口口口口 |----|
①口口② |③---|
39
口口口口 |①---|
口口①口 |②---|
口②③口 |③---|
口口口口 |----|
40
口口口口 |----|
口口口口 |----|
口口口口 |----|
口口口口 |----|
41
①口口② |----|
口口口口 |①---|
口口口口 |--②-|
口口口口 |----|
42
③口口口 |①---|
口口口口 |--②-|
口口口口 |----|
①口口② |③---|
43
口口口① |--①-|
口口口口 |----|
口口口口 |②---|
②口口③ |--③-|
44
口口口口 |----|
口①①口 |①---|
口口口口 |----|
口口口口 |----|
45
口口口口 |----|
口②②口 |①---|
口①①口 |----|
口口口口 |--②-|
46
口①①口 |----|
口口口口 |--①-|
口口口口 |----|
口口口口 |----|
47
口口口口 |①---|
口口口口 |----|
口口口口 |----|
①口口① |----|
48
①口口① |①---|
口口口口 |----|
口口口口 |----|
口口口口 |----|
49
口口口口 |----|
口①②口 |①---|
口口口口 |----②-|
口口口口 |----|
50
口口口口 |--①---|
口口口口 |----|
口①②口 |②---|
口③③口 |----③-|
51
口口口口 |----|
①口口口 |----|
口口口口 |--①-|
口口口口 |----|
52
口口口口 |①---|
口口口① |----|
口②②口 |②---|
口口口口 |----|
53
口口口口 |①---|
②③口口 |----|
口口口口 |②---|
口①①口 |③---|
54
口口口口 |①---|
口口①② |②---|
口口④③ |③---|
口口口口 |④---|
55
口口口口 |①---|
③口口口 |②---|
②①口口 |----|
口口口口 |③---|
56
口口口口 |①---|
口①②口 |②---|
口口③口 |----|
口口口口 |③---|
57
②口口③ |①---|
口口口口 |②---|
口口口① |③---|
④口口口 |④---|
58
口口口口 |①---|
口②③口 |②---|
口④④口 |③---|
口口口① |④---|
59
①口口② |①---|
口口口口 |②---|
口口口口 |③---|
③口口④ |④---|
60
口口口口 |①---|
口①②口 |②---|
口③③口 |③---|
口口口口 |----|
61
①④③② |①---|
⑤口口口 |--②-|
口口口口 |③-④-|
口口口口 |⑤---|
62
口口口口 |--①-|
口口②① |②-③-|
③口⑤④ |----|
口口口口 |④-⑤-|
63
⑤口口口 |①-②-|
口口口口 |----|
口①口口 |③-④-|
②口④③ |⑤---|
64
口③②① |--①-|
④口口⑤ |②-③-|
口口口口 |④---|
口口口口 |--⑤-|
65
口口口口 |①-②-|
口口①口 |----|
②⑤④③ |③-④-|
⑥口口口 |⑤-⑥-|
66
口口口口 |----|
口口口口 |①-②-|
口口口口 |----|
口口②① |----|


不确定度: 0

最終更新:2012年11月11日 16:31