Two souls -toward the truth-
fripSide

BASIC

Level: 3
BPM: 165
Notes: 228

1
口口口口 |----|
口口口口 |----|
口口口口 |----|
口口口口 |----|
2
口口口口 |①---|
口口口① |----|
口口口口 |----|
口口口口 |----|
3
口口口口 |①---|
口口①口 |----|
口口口口 |----|
口口口口 |----|
4
口口口口 |①---|
口①口口 |----|
口口口口 |----|
口口口口 |----|
5
口①①口 |①---|
口②②口 |----|
口口口口 |②---|
口口口口 |----|
6
口口②① |①---|
口口口口 |----|
口口口口 |②---|
口口口口 |----|
7
②①口口 |①---|
口口口口 |----|
口口口口 |②---|
口口口口 |----|
8
口口口口 |①---|
①②口口 |----|
口口口口 |②---|
口口口口 |----|
9
口口口口 |①---|
口口①② |----|
口口口口 |②---|
口口口口 |----|
10
口口口口 |①---|
口口口口 |----|
口口②① |②---|
口口口口 |----|
11
口口口口 |①---|
口口口口 |----|
②①口口 |②---|
口口口口 |----|
12
口口口口 |①---|
口口口口 |----|
口口口口 |②---|
①②口口 |----|
13
口口口口 |①---|
口口口口 |----|
口口口口 |②---|
口口①② |----|
14
口口口口 |①---|
口口口② |----|
口①①口 |②---|
口口口口 |----|
15
口口口口 |①---|
口②①口 |----|
口口口口 |②---|
口口口口 |----|
16
口口口口 |①---|
①口口口 |----|
②口口口 |②---|
口口口口 |----|
17
口口口口 |①---|
口口口口 |----|
口①②口 |②---|
口口口口 |----|
18
口口口口 |①---|
口口口口 |----|
口口口① |②---|
口口口② |----|
19
口口口口 |①---|
口口口口 |----|
口口口口 |②---|
口②①口 |----|
20
口口口口 |①---|
口②②口 |----|
口①①口 |②---|
口口口口 |----|
21
口①①口 |①---|
口②②口 |----|
口口口口 |②---|
口口口口 |----|
22
口口口① |①---|
口口口② |----|
口口口口 |②---|
口口口口 |----|
23
口口口口 |①---|
口口口口 |----|
口口口① |②---|
口口口② |----|
24
口口①口 |①---|
口口②口 |----|
口口口口 |②---|
口口口口 |----|
25
口口口口 |①---|
口口口口 |----|
口口①口 |②---|
口口②口 |----|
26
口①口口 |①---|
口②口口 |----|
口口口口 |②---|
口口口口 |----|
27
口口口口 |①---|
口口口口 |----|
口①口口 |②---|
口②口口 |----|
28
①口口口 |①---|
②口口口 |----|
口口口口 |②---|
口口口口 |----|
29
口口口口 |①---|
口口口口 |----|
①口口口 |②---|
②口口口 |----|
30
口口口口 |①---|
②口口口 |----|
口①①口 |②---|
口口口口 |----|
31
口口口口 |①---|
口口口口 |----|
①口口口 |②---|
②口口口 |----|
32
口①口口 |①---|
口②口口 |----|
口口口口 |②---|
口口口口 |----|
33
口口口口 |①---|
口口口口 |----|
口①口口 |②---|
口②口口 |----|
34
口口①口 |①---|
口口②口 |----|
口口口口 |②---|
口口口口 |----|
35
口口口口 |①---|
口口口口 |----|
口口①口 |②---|
口口②口 |----|
36
口口口① |①---|
口口口② |----|
口口口口 |②---|
口口口口 |----|
37
口口口口 |①---|
口口口口 |----|
口口口① |②---|
口口口② |----|
38
口口口口 |①---|
口口口口 |----|
口①①口 |②---|
口②②口 |----|
39
口口口口 |①---|
口口口口 |----|
②口口② |②---|
①口口① |----|
40
口口口口 |①---|
口口口口 |----|
口①①口 |②---|
口②②口 |----|
41
口口口口 |①---|
口口口口 |----|
②口口② |②---|
①口口① |----|
42
口口口口 |①---|
口①①口 |----|
口②②口 |②---|
口口口口 |----|
43
口口口口 |①---|
②口口② |----|
①口口① |②---|
口口口口 |----|
44
口口口口 |①---|
口①①口 |----|
口②②口 |②---|
口口口口 |----|
45
口口口口 |①---|
②口口② |----|
①口口① |②---|
口口口口 |----|
46
④③②① |①---|
口口口口 |②---|
口口口口 |③---|
口口口口 |④---|
47
口口口口 |①---|
①②③④ |②---|
口口口口 |③---|
口口口口 |④---|
48
口口口口 |①---|
③②口口 |----|
口①①口 |②---|
口口口口 |③---|
49
口口口口 |①---|
口口口口 |②---|
①②③④ |③---|
口口口口 |④---|
50
口口口口 |①---|
口口口口 |----|
口②②口 |②---|
口①①口 |----|
51
口口口口 |①---|
④③②① |②---|
口口口口 |③---|
口口口口 |④---|
52
口口口口 |①---|
口口口口 |----|
口②③口 |②---|
口①①口 |③---|
53
③口口③ |①---|
口①②口 |②---|
口口口口 |③---|
口口口口 |----|
54
口口口口 |①---|
②②①① |②---|
口口口口 |----|
口口口口 |----|
55
口口口口 |①---|
口口口口 |②---|
②②①① |----|
口口口口 |----|
56
口口口口 |①---|
口口口口 |②---|
口④③口 |③---|
口②①口 |④---|
57
③口口③ |①---|
口②①口 |②---|
口口口口 |③---|
口口口口 |----|
58
口口口口 |①---|
口口②② |②---|
口口口① |----|
口口口口 |----|
59
口口口口 |①---|
②②口口 |②---|
①口口口 |----|
口口口口 |----|
60
口③③口 |①---|
口④④口 |②---|
口②①口 |--③-|
口口口口 |--④-|
61
③口口③ |--①-|
口口口口 |--②-|
口①①口 |③---|
口②②口 |----|
62
口口口口 |①---|
②②①① |②---|
口口口口 |----|
口口口口 |----|
63
口口口口 |①---|
口口口口 |②---|
②②①① |----|
口口口口 |----|
64
口口口口 |①---|
口口口口 |②---|
口④③口 |③---|
口②①口 |④---|
65
③口口③ |①---|
口②①口 |②---|
口口口口 |③---|
口口口口 |----|
66
口口口口 |①---|
④③②① |②---|
口口口口 |③---|
口口口口 |④---|
67
口口口口 |①---|
口口口口 |②---|
①②③④ |③---|
口口口口 |④---|
68
口口口口 |①---|
②③③② |--②-|
口口口口 |----|
口①①口 |--③-|
69
③口口③ |--①-|
口口口口 |--②-|
口①①口 |③---|
口②②口 |----|
70
口口②口 |①---|
口①①口 |----|
口口口口 |②---|
口口口口 |----|
71
②①口口 |①---|
口口口口 |----|
口口口口 |②---|
口口口口 |----|
72
口口口口 |①---|
①②口口 |----|
口口口口 |②---|
口口口口 |----|
73
口口口口 |①---|
口口①② |----|
口口口口 |②---|
口口口口 |----|
74
口口口口 |①---|
口口口口 |----|
口口②① |②---|
口口口口 |----|
75
口口口口 |①---|
口口口口 |----|
②①口口 |②---|
口口口口 |----|
76
口口口口 |①---|
口口口口 |----|
口口口口 |②---|
①②口口 |----|
77
口口口口 |①---|
口口口口 |----|
口口口口 |②---|
口口①② |----|

不確定度: 0

最終更新:2017年08月03日 01:59