Two souls -toward the truth-
fripSide

ADVANCED

Level: 7
BPM: 165
Notes: 475

1
口口口口 |----|
口口口口 |----|
口口口口 |----|
口口口口 |----|
2
口口口口 |①-②-|
③③口口 |--③-|
④④口① |--④-|
口口②口 |----|
3
口口口口 |①-②-|
③③口口 |--③-|
④④口① |--④-|
口口②口 |----|
4
口口口口 |①-②-|
③③口口 |--③-|
口口口①
口口②口

口口口口
口口口口
④④口口 |--④-|
口⑤⑤口 |--⑤-|
5
口口口口 |--①-|
③口口① |②-③-|
口④②口 |④---|
口⑤⑤口 |⑤---|
6
口口④④ |①---|
口①①口 |----|
口③②口 |②-③-|
口口口口 |--④-|
7
①①口口 |----|
口口②② |①---|
③③口口 |②---|
口口口口 |③---|
8
⑤口口⑤ |①---|
口口③③ |②---|
口④④口 |③---|
②②①① |④-⑤-|
9
⑤①②④ |--①-|
口③口⑥ |②-③-|
口口口口 |--④-|
口口口口 |⑤-⑥-|
10
口②②口 |①---|
口口口口 |②---|
口①①口
口口口口

口口口口
④口口④
口⑤⑤口 |③-④-|
口③③口 |--⑤-|
11
⑤③口④ |--①-|
口①②⑥ |②-③-|
口口口口 |--④-|
口口口口 |⑤-⑥-|
12
口口口口 |①---|
①口口口 |②---|
口⑤⑥口 |③-④-|
口③④② |⑤-⑥-|
13
口口口③ |--①-|
②口口① |②-③-|
口④④口 |--④-|
口口口口 |----|
14
口口④④ |①---|
口①①口 |----|
口③②口 |②-③-|
口口口口 |--④-|
15
口口③③ |----|
②②口口 |①---|
口口①① |②---|
口口口口 |③---|
16
①①口口 |①---|
口口②② |②---|
口口口口
口口口口

口④④口
口口口口
③③口口 |③---|
口⑤⑤口 |④-⑤-|
17
④口口⑤ |--①-|
⑥②①口 |②-③-|
口口③口 |--④-|
口口口口 |⑤-⑥-|
18
口口口口 |①---|
口口口① |----|
口⑤④口 |②-③-|
口③②口 |④-⑤-|
19
口口口口 |--①-|
①口⑥② |②-③-|
③⑤④口 |--④-|
口口口口 |⑤-⑥-|
20
①①④④ |①-②-|
口③口② |③-④-|
口口口口
口口口口

⑦⑦口口
口口口口
口⑤⑥口 |--⑤-|
口口口口 |⑥-⑦-|
21
口口②② |--①-|
①①③③ |--②-|
口口口口 |--③-|
口口口口 |----|
22
口④③口 |①---|
口⑥⑤口 |②---|
①②口口 |③-④-|
口口口口 |⑤-⑥-|
23
口口口口 |--①-|
口口口① |②-③-|
口口口② |----|
口口口③ |----|
24
口③④口 |①---|
口⑤⑥口 |②---|
口口②① |③-④-|
口口口口 |⑤-⑥-|
25
口口口口 |--①-|
①口口口 |②-③-|
②口口④ |----|
③口口口 |--④-|
26
口口口口 |①-②-|
⑤口口口 |③-④-|
④口①口 |----|
③②口口 |--⑤-|
27
口口⑤口 |①-②-|
口①口④ |③-④-|
口口②③ |----|
口口口口 |--⑤-|
28
口①口口 |①-②-|
口③②口 |③-④-|
口口④口 |----|
口口⑤口 |--⑤-|
29
口口口口 |①---|
口口口口 |--②-|
口③②口 |③---|
口①口口 |----|
30
口口口口 |①---|
口③④口 |②---|
口⑤⑥口 |③-④-|
口口②① |⑤-⑥-|
31
口口口① |--①-|
口口口② |②-③-|
口口口③ |----|
口口口口 |----|
32
口口口口 |①---|
口④③口 |②---|
口⑥⑤口 |③-④-|
①②口口 |⑤-⑥-|
33
③口口口 |--①-|
②口口口 |②-③-|
①口口口 |----|
口口口④ |--④-|
34
口口④③ |①-②-|
口口口② |③-④-|
口口口① |----|
⑤口口口 |--⑤-|
35
③④口口 |①-②-|
②口口口 |③-④-|
①口口口 |----|
口⑤⑤口 |--⑤-|
36
②口口② |①---|
口①①口 |②---|
口口口口
口口口口

口口口口
口⑤⑤口
③④④③ |③---|
口口口口 |④-⑤-|
37
口①①口 |--①-|
②口口② |②-③-|
③口口③ |----|
口口口口 |----|
38
口口口① |①---|
口⑤②口 |②---|
口口口③ |③---|
口口④口 |④-⑤-|
39
口②①口 |--①-|
口口③口 |②-③-|
口口口口 |----|
口口口口 |----|
40
①口口口 |①---|
口②⑤口 |②---|
③口口口 |③---|
口④口口 |④-⑤-|
41
口口口口 |--①-|
③口口③ |②-③-|
口②①口 |----|
口口口口 |----|
42
口口口① |①---|
口⑤②口 |②---|
口口口③ |③---|
口口④口 |④-⑤-|
43
口②①口 |--①-|
口口③口 |②-③-|
口口口口 |----|
口口口口 |----|
44
①口口口 |①---|
口②⑤口 |②---|
③口口口 |③---|
口④口口 |④-⑤-|
45
口①①口 |--①-|
③口口③ |②-③-|
口②②口 |--④-|
口⑤④口 |⑤---|
46
口口①① |①---|
⑤⑤②② |②---|
口口③③ |③---|
口口④④ |④-⑤-|
47
③口④③ |--①-|
口⑤②口 |②-③-|
口①⑥口 |--④-|
口口口口 |⑤-⑥-|
48
口口口口 |①---|
口口口口 |----|
⑤④③② |②-③-|
口①口口 |④-⑤-|
49
口口口口 |--①-|
口①②③ |②-③-|
口⑤④口 |--④-|
口口⑥口 |⑤-⑥-|
50
①①④④ |①---|
②②口口 |②---|
③③口口 |③-④-|
口⑤⑤口 |--⑤-|
51
③口口③ |--①-|
口口口口 |②-③-|
口②①口
口口口口

口口④口
口⑤口口
口口⑥口 |--④-|
口口口口 |⑤-⑥-|
52
⑥口口⑥ |①---|
口③②口 |--②-|
口⑤④口 |③-④-|
口①口口 |⑤-⑥-|
53
口口口口 |--①-|
①②②① |--②-|
口③③口 |③---|
④口口④ |④---|
54
口口②① |①-②-|
④③口口 |③-④-|
口口口口
口口口口

⑤口口⑤
口口口口
口口口口 |----|
口口口口 |--⑤-|
55
口口口口 |--①-|
口口①口 |②-③-|
口②口口 |----|
口口③口 |----|
56
⑤⑤③④ |①-②-|
①②⑥⑥ |③-④-|
口口口口 |--⑤-|
口口口口 |--⑥-|
57
③口口③ |--①-|
口口口口 |②-③-|
口②②口 |----|
口①①④ |--④-|
58
④口口④ |①-②-|
口口口口 |③-④-|
⑤口口口 |----|
③②①口 |--⑤-|
59
④口口④ |①-②-|
口口口口 |③-④-|
口①②③ |----|
口口口口 |----|
60
口口⑤⑤ |①-②-|
⑥⑥口口 |③-④-|
口②①口 |--⑤-|
口④③口 |--⑥-|
61
③口口③ |--①-|
口口口口 |--②-|
口口①① |③---|
口②②口 |----|
62
口口口口 |①-②-|
口口②① |③-④-|
④③口口
口口口口

口口口口
⑤口口⑤
口口口口 |----|
口口口口 |--⑤-|
63
口口口口 |--①-|
口口①口 |②-③-|
口②口口 |----|
口口③口 |----|
64
口口口口 |①-②-|
口口③④ |③-④-|
①②口口
口口口口

口口口口
口口口口
口⑥⑥口 |--⑤-|
口⑤⑤口 |--⑥-|
65
口口口口 |--①-|
口③②① |②-③-|
口⑤口口 |----|
口口④口 |④-⑤-|
66
①①②② |①---|
⑤③③⑤ |②---|
口④④口 |③-④-|
口口口口 |--⑤-|
67
口①②口 |--①-|
口③⑥口 |②-③-|
口⑤口口 |--④-|
口口④口 |⑤-⑥-|
68
①①④④ |①-②-|
口⑦⑦口 |③-④-|
⑤口②口 |--⑤-|
口③口⑥ |⑥-⑦-|
69
口口口口 |--①-|
口口口口 |--②-|
②①①② |③---|
口③③口 |----|
70
口口④④ |①---|
口①①口 |----|
口③②口 |②-③-|
口口口口 |--④-|
71
①①口口 |----|
口口②② |①---|
③③口口 |②---|
口口口口 |③---|
72
⑤口口⑤ |①---|
口口③③ |②---|
口④④口 |③---|
②②①① |④-⑤-|
73
⑤①②④ |--①-|
口③口⑥ |②-③-|
口口口口 |--④-|
口口口口 |⑤-⑥-|
74
口②②口 |①---|
口口口口 |②---|
口①①口
口口口口

口口口口
④口口④
口⑤⑤口 |③-④-|
口③③口 |--⑤-|
75
⑤③口④ |--①-|
口①②⑥ |②-③-|
口口口口 |--④-|
口口口口 |⑤-⑥-|
76
口口口口 |①---|
①口口口 |②---|
口⑤⑥口 |③-④-|
口③④② |⑤-⑥-|
77
口口口③ |--①-|
②口口① |②-③-|
口④④口 |--④-|
口口口口 |----|

不確定度: 0

最終更新:2017年08月03日 01:59