paranoia
つなまる

BASIC

Level: 3
BPM: 150
Notes: 172

1
口口口口 |----|
口口口口 |----|
口口口口 |----|
口口口口 |----|
2
口①②口 |①---|
口口口口 |----|
口口口口 |②---|
口口口口 |----|
3
①口口② |①---|
口口口口 |----|
口口口口 |②---|
口口口口 |----|
4
口口口口 |①---|
口①②口 |----|
口口口口 |②---|
口口口口 |----|
5
口口口口 |①---|
①口口② |----|
口口口口 |②---|
口口口口 |----|
6
口口口口 |①---|
口口口口 |----|
口①②口 |②---|
口口口口 |----|
7
口口口口 |①---|
口口口口 |----|
①口口② |②---|
口口口口 |----|
8
口口口口 |①---|
口口口口 |----|
口口口口 |②---|
口①②口 |----|
9
口口口口 |①---|
口口口口 |----|
口口口口 |②---|
①口口② |----|
10
口口口口 |①---|
口口口口 |②---|
口①③口 |③---|
口②④口 |④---|
11
口口口口 |①---|
①口口③ |②---|
②口口④ |③---|
口口口口 |④---|
12
口①③口 |①---|
口②④口 |②---|
口口口口 |③---|
口口口口 |④---|
13
口口口口 |①---|
①口口③ |②---|
②口口④ |③---|
口口口口 |④---|
14
口口口口 |①---|
口口口口 |②---|
口①③口 |③---|
口②④口 |④---|
15
口口口口 |①---|
①口口③ |②---|
②口口④ |③---|
口口口口 |④---|
16
口①③口 |①---|
口②④口 |②---|
口口口口 |③---|
口口口口 |④---|
17
口口口口 |①---|
①口口③ |②---|
②口口④ |③---|
口口口口 |④---|
18
①②口口 |①---|
口口口口 |----|
口口口口 |②---|
口口口口 |----|
19
口口①② |①---|
口口口口 |----|
口口口口 |②---|
口口口口 |----|
20
口口口口 |①---|
口口②① |----|
口口口口 |②---|
口口口口 |----|
21
口口口口 |①---|
②①口口 |----|
口口口口 |②---|
口口口口 |----|
22
口口口口 |①---|
口口口口 |----|
①②口口 |②---|
口口口口 |----|
23
口口口口 |①---|
口口口口 |----|
口口①② |②---|
口口口口 |----|
24
口口口口 |①---|
口口口口 |----|
口口口口 |②---|
口口②① |----|
25
口口口口 |①---|
口口口口 |----|
口口口口 |②---|
②①口口 |----|
26
口口口口 |①---|
口①①口 |----|
口口口口 |----|
口口口口 |----|
27
口①②口 |①---|
口口③口 |②---|
口口④口 |③---|
口口口口 |④---|
28
口口口口 |①---|
口口口口 |----|
口③口口 |②---|
口②①口 |③---|
29
口口口② |①---|
口①口口 |----|
口口口口 |②---|
口口口口 |----|
30
①口口口 |①---|
口口口② |----|
口口口口 |②---|
口口口口 |----|
31
口口口口 |①---|
①口口口 |----|
口口口② |②---|
口口口口 |----|
32
口口口口 |①---|
①②③④ |②---|
口口口口 |③---|
口口口口 |④---|
33
口口口口 |----|
口口口口 |----|
口口口口 |----|
口口口口 |----|
34
口口口口 |①---|
口①②口 |②---|
口③④口 |③---|
口口口口 |④---|
35
口口口口 |①---|
口口口口 |②---|
③口口③ |③---|
口①②口 |----|
36
口口口口 |①---|
口①①口 |----|
口②②口 |②---|
口口口口 |----|
37
口口口口 |①---|
②口口② |----|
口口口口 |②---|
口①①口 |----|
38
口口口口 |①---|
口①口口 |②---|
口②口口 |③---|
口③口口 |----|
39
口口口口 |①---|
口口③口 |②---|
口口②口 |③---|
口口①口 |----|
40
口口口口 |①---|
口口口① |②---|
口口口② |③---|
口口口③ |----|
41
口口口口 |①---|
口口口口 |----|
口①①口 |----|
口口口口 |----|
42
口口口口 |①---|
口①②口 |②---|
口③④口 |③---|
口口口口 |④---|
43
口口口口 |①---|
口口口口 |②---|
③口口③ |③---|
口①②口 |----|
44
口口口口 |①---|
口①①口 |----|
口②②口 |②---|
口口口口 |----|
45
口口口口 |①---|
②口口② |----|
口口口口 |②---|
口①①口 |----|
46
口口口口 |①---|
口口①口 |②---|
口口②口 |③---|
口口③口 |----|
47
口口口口 |①---|
口③口口 |②---|
口②口口 |③---|
口①口口 |----|
48
口口口口 |①---|
①口口口 |②---|
②口口口 |③---|
③口口口 |----|
49
口口口口 |①---|
口口口口 |----|
口①①口 |----|
口口口口 |----|
50
②口口口 |①---|
口①①口 |----|
口口口口 |②---|
口口口口 |----|
51
口①②口 |①---|
口口口口 |----|
口口口口 |②---|
口口口口 |----|
52
口口口① |①---|
口口口口 |----|
口口口口 |----|
口口口口 |----|
53
口口口口 |----|
口口口口 |----|
口口口口 |----|
口口口口 |----|
54
口口口口 |①---|
口口口② |----|
口①①口 |②---|
口口口口 |----|
55
口口口口 |①---|
口②①口 |----|
口口口口 |②---|
口口口口 |----|
56
口口口口 |①---|
①口口口 |----|
口②②口 |②---|
口口口口 |----|
57
口口口口 |①---|
②口口② |----|
口口口口 |②---|
口①①口 |----|
58
口口口口 |----|
口①①口 |----|
口口口口 |①---|
口口口口 |----|
59
口口口① |①---|
口口口② |②---|
口口口③ |③---|
口口口④ |④---|
60
口口口口 |----|
口①①口 |----|
口口口口 |①---|
口口口口 |----|
61
①口口口 |①---|
②口口口 |②---|
③口口口 |③---|
④口口口 |④---|
62
口口口口 |----|
口口口口 |----|
口口口口 |①---|
口口①口 |----|
63
口口口口 |①---|
口口②口 |----|
口①口口 |②---|
口口口口 |----|
64
①口口① |①---|
口口口口 |----|
口口口口 |----|
口口口口 |----|

不確定度: 0

最終更新:2017年08月03日 01:58