paranoia
つなまる

ADVANCED

Level: 7
BPM: 150
Notes: 414

1
口口口口 |----|
口口口口 |----|
口口口口 |----|
口口口口 |----|
2
①口口③ |①-②-|
口②口口 |③---|
口口口口
口口口口

⑥口口口
口口口④
口口⑤口 |④-⑤-|
口口口口 |⑥---|
3
口口口③ |①-②-|
①口口口 |③---|
口②口口
口口口口

口口口口
⑥口口口
口口口④ |④-⑤-|
口口⑤口 |⑥---|
4
口口口口 |①-②-|
口口口③ |③---|
①口口口
口②口口

口口口口
口口口口
⑥口口④ |④-⑤-|
口口⑤口 |⑥---|
5
口口⑦⑦ |①-②-|
口口口② |③-④-|
⑤①①③ |⑤-⑥-|
口⑥口④ |⑦---|
6
③口口⑥ |①-②-|
口口口口 |③---|
④口口① |④-⑤-|
口⑤②口 |⑥---|
7
①口口口 |①---|
口②口口 |②---|
口口③口 |③---|
口口口④ |④---|
8
口口口④ |①---|
口口③口 |②---|
口②口口 |③---|
①口口口 |④---|
9
口口口口 |①-②-|
①⑦⑦② |③-④-|
口③④口 |⑤-⑥-|
⑤口口⑥ |⑦---|
10
⑥口口③ |①-②-|
口口口口 |③---|
①口口④ |④-⑤-|
口②⑤口 |⑥---|
11
口口口口 |①-②-|
口②口口 |③---|
①口口③
口口口口

口口⑤口
口口口④
⑥口口口 |④-⑤-|
口口口口 |⑥---|
12
口②口口 |①-②-|
①口⑤口 |③---|
口口口④ |④-⑤-|
⑥口口③ |⑥---|
13
①②口① |①---|
⑥口③⑥ |②-③-|
口④口口 |④-⑤-|
口口⑤口 |⑥---|
14
③口①③ |①-②-|
口②⑤口 |③---|
⑥④口⑥ |④-⑤-|
口口口口 |⑥---|
15
口口⑤口 |①-②-|
③④口③ |③---|
⑥口①⑥ |④-⑤-|
口②口口 |⑥---|
16
③口⑤③ |①-②-|
口④①口 |③---|
口②口口 |④-⑤-|
⑥口口⑥ |⑥---|
17
口口口口 |①---|
①口口① |②-③-|
口②③口
口口口口

口口口口
⑦口口口
⑥口口⑥ |④-⑤-|
口④⑤口 |⑥-⑦-|
18
口口口口 |①---|
口①口口 |--②-|
④口口口 |③---|
口口③② |--④-|
19
口口③② |①---|
口口口口 |--②-|
口①口口 |③---|
④口口口 |--④-|
20
口④口口 |①---|
口口⑤口 |--②-|
口口③② |③---|
口①口口 |④-⑤-|
21
口口口口 |①---|
口口口② |②---|
口①③口 |③---|
口④口口 |④---|
22
口口口③ |①---|
④②①① |--②-|
③口②口 |③---|
口口口口 |--④-|
23
③口口口 |①---|
口口②④ |--②-|
口②口③ |③---|
口①口口 |--④-|
24
④口口③ |①---|
口②口口 |--②-|
③口②口 |③---|
口口①口 |--④-|
25
口口口④ |①---|
③②②口 |②---|
口①口③ |③---|
④口口口 |④---|
26
口②口口 |①---|
③①①口 |----|
口①①口 |----|
口口口口 |②-③-|
27
⑥口④① |①-②-|
口⑦②⑤ |③---|
③③口口 |④-⑤-|
口口口口 |⑥-⑦-|
28
口③口② |①---|
②口④口 |②---|
口⑤①① |③-④-|
口口⑥口 |⑤-⑥-|
29
口②口口 |①---|
①①④口 |--②-|
口③口口 |③---|
口口口口 |--④-|
30
口口口④ |①---|
②口口口 |--②-|
口口口口 |③---|
③口①口 |--④-|
31
④口口④ |①---|
口②②口 |--②-|
口口口① |③---|
口③③口 |④---|
32
⑤⑤口口 |①---|
①口④口 |②---|
口口口③ |③-④-|
口②口口 |⑤---|
33
口口口口 |----|
①口口① |----|
③口口③ |--①-|
口②②口 |②-③-|
34
②②口口 |①---|
口①①⑤ |②-③-|
⑥⑥③口 |④---|
④④口口 |⑤-⑥-|
35
口口④④ |--①-|
③③⑤⑤ |②-③-|
⑤⑤口① |----|
④④②口 |④-⑤-|
36
①①口④ |----|
②②③口 |①-②-|
口③②② |--③-|
④口①① |--④-|
37
①③③口 |----|
②④④② |①---|
口口口口 |②---|
口口口① |③-④-|
38
口口口口 |①---|
口口口口 |②-③-|
口①①口
②②③③

口⑤⑤口
口口口口
口④④口 |----|
口口口口 |④-⑤-|
39
口口④④ |----|
口①①口 |①-②-|
③③口口 |----|
口②②口 |③-④-|
40
④④口口 |----|
①①③口 |①-②-|
口③②② |----|
口口④④ |③-④-|
41
口口口口 |----|
①口口① |----|
③口口③ |--①-|
口②②口 |②-③-|
42
②②⑦⑦ |①---|
⑥⑥③③ |②-③-|
口①①口 |④-⑤-|
④④⑤⑤ |⑥-⑦-|
43
口口口口 |--①-|
口口③口 |②-③-|
口③①①
②②口口

④④口口
⑤⑤口口
口口⑤⑤ |----|
口口④④ |④-⑤-|
44
④口①① |----|
口③②② |①-②-|
②②③口 |--③-|
①①口④ |--④-|
45
口③③① |----|
②④④② |①---|
口口口口 |②---|
①口口口 |③-④-|
46
口口口口 |①---|
口口口口 |②-③-|
口①①口
②②③③

口⑤⑤口
口口口口
口④④口 |----|
口口口口 |④-⑤-|
47
口口④④ |----|
口①①口 |①-②-|
③③口口 |----|
口②②口 |③-④-|
48
②②口口 |----|
④④③④ |①-②-|
④③④④ |----|
口口①① |③-④-|
49
口口口口 |----|
口口口口 |----|
口口口口 |----|
口口口口 |----|
50
口②③口 |①---|
口口口口 |----|
口①①口 |②---|
口口口口 |③---|
51
口口口① |①---|
口口口② |②---|
口口口③ |③---|
口口口④ |④---|
52
①口口口 |①-②-|
口②口口 |③---|
④口③口 |----|
口口口口 |④---|
53
口口口口 |----|
口口口口 |----|
口口口口 |----|
口口口口 |----|
54
口③②口 |①---|
口口口口 |----|
口①①口 |②---|
口口口口 |③---|
55
①口口口 |①---|
②口口口 |②---|
③口口口 |③---|
④口口口 |④---|
56
口口口口 |①---|
④②①③ |--②-|
③口②④ |③---|
口口口口 |--④-|
57
口口③口 |①---|
口口①② |--②-|
②①口口 |③---|
口③口口 |----|
58
口口①口 |----|
口口口② |----|
口口口口 |①---|
口口口口 |②---|
59
⑤④口口 |①---|
④⑤口口 |②---|
口口口① |③---|
口③②口 |④-⑤-|
60
口①口口 |----|
②口口口 |----|
口口口口 |①---|
口口口口 |②---|
61
口口④⑤ |①---|
口口⑤④ |②---|
①口口口 |③---|
口②③口 |④-⑤-|
62
①口口② |----|
口口口口 |----|
口口口口 |①---|
口口口口 |②---|
63
口口口口 |①---|
①口口② |②---|
③口口④ |③---|
口口口口 |④---|
64
口口口口 |----|
口口口口 |①---|
口口口口 |----|
口①①口 |----|

不確定度: 0

最終更新:2017年08月03日 01:58