Girl A
[Alexandros]

BASIC

Level: 3
BPM: 135
Notes: 198

1
口口口口 |----|
口口口口 |----|
口口口口 |----|
口口口口 |----|
2
口口口口 |①---|
口④①口 |②---|
口③②口 |③---|
口口口口 |④---|
3
口口口口 |①---|
口口口口 |----|
口口口口 |----|
口①①口 |----|
4
口口口口 |①---|
口口口口 |----|
口①①口 |----|
口口口口 |----|
5
口口口口 |①---|
口①①口 |----|
口口口口 |----|
口口口口 |----|
6
口①①口 |①---|
口口口口 |----|
口口口口 |----|
口口口口 |----|
7
口口口① |①---|
口口口② |----|
口口口口 |②---|
口口口口 |----|
8
口口口口 |①---|
口口口口 |----|
口口口① |②---|
口口口② |----|
9
口口①口 |①---|
口口②口 |----|
口口口口 |②---|
口口口口 |----|
10
口口口口 |①---|
口口口口 |----|
口口①口 |②---|
口口②口 |----|
11
口①口口 |①---|
口②口口 |----|
口口口口 |②---|
口口口口 |----|
12
口口口口 |①---|
口口口口 |----|
口①口口 |②---|
口②口口 |----|
13
①口口口 |①---|
②口口口 |----|
口口口口 |②---|
口口口口 |----|
14
口口口口 |①---|
口口口口 |----|
①口口口 |②---|
②口口口 |----|
15
口口口口 |①---|
口口口口 |②---|
④③②① |③---|
口口口口 |④---|
16
①口口① |①---|
口口口口 |----|
口③②口 |②---|
口口口口 |③---|
17
口口口口 |①---|
①②③④ |②---|
口口口口 |③---|
口口口口 |④---|
18
口口口口 |①---|
口口口口 |----|
口口口口 |----|
口①①口 |----|
19
口口口① |①---|
口口口② |②---|
口口口③ |③---|
口口口④ |④---|
20
口①口口 |①---|
口②口口 |②---|
口③口口 |③---|
口④口口 |④---|
21
口口①口 |①---|
口口②口 |②---|
口口③口 |③---|
口口④口 |④---|
22
①口口口 |①---|
②口口口 |②---|
③口口口 |③---|
④口口口 |④---|
23
口口口口 |①---|
口口口口 |②---|
④③②① |③---|
口口口口 |④---|
24
①口口① |①---|
口口口口 |----|
口③②口 |②---|
口口口口 |③---|
25
口口口口 |①---|
①②③④ |②---|
口口口口 |③---|
口口口口 |④---|
26
口口口口 |①---|
口口口口 |----|
口口口口 |----|
口①①口 |----|
27
口口口① |①---|
口口口② |②---|
口口口③ |③---|
口口口④ |④---|
28
口①口口 |①---|
口②口口 |②---|
口③口口 |③---|
口④口口 |④---|
29
口口①口 |①---|
口口②口 |②---|
口口③口 |③---|
口口④口 |④---|
30
①口口口 |①---|
②口口口 |②---|
③口口口 |③---|
④口口口 |④---|
31
④口口① |①---|
口口口口 |②---|
口③②口 |③---|
口口口口 |④---|
32
口③②口 |①---|
④口口① |②---|
口口口口 |③---|
口口口口 |④---|
33
④口口① |①---|
口口口口 |②---|
口③②口 |③---|
口口口口 |④---|
34
口①①口 |①---|
口口口口 |----|
口口口口 |----|
口口口口 |----|
35
口口口口 |①---|
口口口口 |②---|
④③②① |③---|
口口口口 |④---|
36
①口口① |①---|
口口口口 |----|
口③②口 |②---|
口口口口 |③---|
37
口口口口 |①---|
①②③④ |②---|
口口口口 |③---|
口口口口 |④---|
38
口口口口 |①---|
口口口口 |----|
口口口口 |----|
口①①口 |----|
39
口口口① |①---|
口口口② |②---|
口口口③ |③---|
口口口④ |④---|
40
口①口口 |①---|
口②口口 |②---|
口③口口 |③---|
口④口口 |④---|
41
口口①口 |①---|
口口②口 |②---|
口口③口 |③---|
口口④口 |④---|
42
①口口口 |①---|
②口口口 |②---|
③口口口 |③---|
④口口口 |④---|
43
口口口口 |①---|
口口口口 |②---|
④③②① |③---|
口口口口 |④---|
44
①口口① |①---|
口口口口 |----|
口③②口 |②---|
口口口口 |③---|
45
口口口口 |①---|
①②③④ |②---|
口口口口 |③---|
口口口口 |④---|
46
口口口口 |①---|
口口口口 |----|
口口口口 |----|
口①①口 |----|
47
口口口① |①---|
口口口② |②---|
口口口③ |③---|
口口口④ |④---|
48
口①口口 |①---|
口②口口 |②---|
口③口口 |③---|
口④口口 |④---|
49
口口①口 |①---|
口口②口 |②---|
口口③口 |③---|
口口④口 |④---|
50
①口口口 |①---|
②口口口 |②---|
③口口口 |③---|
④口口口 |④---|
51
口口口口 |①---|
口口口口 |----|
②②口口 |②---|
口口①① |----|
52
②②口口 |①---|
口口①① |----|
口口口口 |②---|
口口口口 |----|
53
口口①① |①---|
②②口口 |----|
口口口口 |②---|
口口口口 |----|
54
口口口口 |①---|
口口口口 |----|
口口①① |②---|
②②口口 |----|
55
口①①口 |①---|
口②②口 |----|
口口口口 |②---|
口口口口 |----|
56
口口口口 |①---|
口口口口 |----|
口①①口 |②---|
口②②口 |----|
57
口口口口 |①---|
口口口口 |----|
②口口② |②---|
①口口① |----|
58
②口口② |①---|
①口口① |----|
口口口口 |②---|
口口口口 |----|
59
口口口口 |①---|
口①①口 |----|
口①①口 |----|
口口口口 |----|

不確定度: 0

最終更新:2017年08月03日 01:49