Girl A
[Alexandros]

ADVANCED

Level: 6
BPM: 135
Notes: 323

1
口口口口 |----|
口口口口 |----|
口口口口 |----|
口口口口 |----|
2
口口口口 |①---|
口③④口 |②---|
口①②口 |③---|
口口口口 |④---|
3
②口口口 |①---|
③口口口 |②---|
④口口口 |③---|
口①①口 |④---|
4
口口口② |①---|
口口口③ |②---|
口口口④ |③---|
口①①口 |④---|
5
②口口口 |①---|
③口口口 |②---|
④口口口 |③---|
口①①口 |④---|
6
口口口② |①---|
口口口③ |②---|
口口口④ |③---|
口①①口 |④---|
7
①口口口 |①---|
口口口② |②---|
③口口口 |③---|
口口口④ |④---|
8
口⑤⑤口 |①-②-|
口口口口 |③-④-|
口①②口 |⑤---|
口③④口 |----|
9
①口口口 |①---|
口口口② |②---|
③口口口 |③---|
口口口④ |④---|
10
口⑤⑤口 |①-②-|
口口口口 |③-④-|
口①②口 |⑤---|
口③④口 |----|
11
①口口口 |①---|
口口口② |②---|
③口口口 |③---|
口口口④ |④---|
12
口⑤⑤口 |①-②-|
口口口口 |③-④-|
口①②口 |⑤---|
口③④口 |----|
13
①口口口 |①---|
口口口② |②---|
③口口口 |③---|
口口口④ |④---|
14
口⑦⑦口 |①-②-|
⑤口口口 |③-④-|
口①②口 |⑤--⑥|
⑥③④⑥ |--⑦-|
15
口④③口 |----|
④口口③ |①-②-|
口①②口 |--③-|
口口口口 |--④-|
16
口④④口 |----|
口口口口 |--①-|
①口口② |②--③|
口③③口 |--④-|
17
口口口口 |----|
①口口② |①-②-|
④口口③ |--③-|
口④③口 |--④-|
18
口口口③ |----|
口口①口 |----|
口口②口 |①---|
口口口口 |②-③-|
19
口①口口 |①---|
口口口④ |②-③-|
口③⑤② |--④-|
口⑥口口 |⑤-⑥-|
20
①④④口 |----|
④口口④ |①-②-|
口口口② |----|
口③③口 |③-④-|
21
口口口口 |----|
口①口口 |①---|
口②口口 |②---|
口③口口 |③---|
22
⑤①①⑤ |①---|
口③②口 |--②-|
口口口口 |③--④|
口④④口 |--⑤-|
23
口④③口 |----|
④口口③ |①-②-|
口①②口 |--③-|
口口口口 |--④-|
24
口④④口 |----|
口口口口 |--①-|
①口口② |②--③|
口③③口 |--④-|
25
口口口口 |----|
①口口② |①-②-|
④口口③ |--③-|
口④③口 |--④-|
26
口口口③ |----|
口口①口 |----|
口口②口 |①---|
口口口口 |②-③-|
27
口①口口 |①---|
口口口口 |②-③-|
口③④② |----|
口⑤口口 |④-⑤-|
28
①口口口 |----|
口口口口 |①-②-|
口口口②
口口口口

④口口④
口口口口
口口口口 |----|
③口口③ |③-④-|
29
口口口口 |--①-|
口口①口 |②-③-|
口②口口 |----|
口③口口 |----|
30
口①口① |①---|
口口口口 |②---|
②口②口
口口口口

口④口④
口口口口
口口口口 |③---|
口③口③ |④---|
31
①口④口 |①---|
口口口④ |②---|
口口口口 |③---|
③口口② |④---|
32
口④口口 |①---|
④口①口 |②---|
口口口口 |③---|
②口口③ |④---|
33
口口④口 |①---|
口①口④ |②---|
口口口口 |③---|
③口口② |④---|
34
口⑤⑤口 |①---|
③①①口 |--②-|
口①①口 |③--④|
④口②④ |--⑤-|
35
口④③口 |----|
④口口③ |①-②-|
口①②口 |--③-|
口口口口 |--④-|
36
口④④口 |----|
口口口口 |--①-|
①口口② |②--③|
口③③口 |--④-|
37
口口口口 |----|
①口口② |①-②-|
④口口③ |--③-|
口④③口 |--④-|
38
口口口③ |----|
口口①口 |----|
口口②口 |①---|
口口口口 |②-③-|
39
口①口口 |①---|
口口口口 |②-③-|
口③④② |----|
口⑤口口 |④-⑤-|
40
①④④口 |----|
④口口④ |①-②-|
口口口② |----|
口③③口 |③-④-|
41
口口口口 |----|
口①口口 |①---|
口②口口 |②---|
口③口口 |③---|
42
⑤①①⑤ |①---|
口③②口 |--②-|
口口口口 |③--④|
口④④口 |--⑤-|
43
口④③口 |----|
④口口③ |①-②-|
口①②口 |--③-|
口口口口 |--④-|
44
口④④口 |----|
口口口口 |--①-|
①口口② |②--③|
口③③口 |--④-|
45
口口口口 |----|
①口口② |①-②-|
④口口③ |--③-|
口④③口 |--④-|
46
口口口③ |----|
口口①口 |----|
口口②口 |①---|
口口口口 |②-③-|
47
口①口口 |①---|
口口口口 |②-③-|
口③④② |----|
口口口口 |--④-|
48
②口口口 |①---|
口口口口 |②-③-|
口口口③
口①口口

⑤口口⑤
口口口口
口口口口 |----|
④口口④ |④-⑤-|
49
口口口口 |--①-|
口口①口 |②-③-|
口②口口 |----|
口③口口 |----|
50
口①口① |①---|
口口口口 |②---|
②口②口
口口口口

口④口④
口口口口
口口口口 |③---|
口③口③ |④---|
51
①口口口 |①---|
②口口口 |②---|
③口口口 |③---|
④口口口 |④---|
52
口口②① |①-②-|
③④口口 |③-④-|
口口⑥⑤ |⑤-⑥-|
⑦⑧口口 |⑦-⑧-|
53
口口口① |①---|
口口口② |②---|
口口口③ |③---|
口口口④ |④---|
54
①②口口 |①-②-|
口口④③ |③-④-|
⑤⑥口口 |⑤-⑥-|
口口⑧⑦ |⑦-⑧-|
55
口①口口 |①---|
口口②口 |②---|
口③口口 |③---|
口口④口 |④---|
56
①①口② |①--②|
口口口② |--③-|
③口口口
③口口口

口⑤⑤口
口口口口
口口口口 |-④--|
口口④④ |⑤---|
57
口口口① |①---|
②口口口 |②---|
口口口③ |③---|
④口口口 |④---|
58
口口口口 |①---|
口口口口 |②---|
口②②口
口①①口

口口口口
③口口③
口口口口 |③---|
口④④口 |④---|
59
①口口① |①---|
口①①口 |----|
口口口口 |----|
口口口口 |----|

不確定度: 0

最終更新:2017年08月03日 01:49