Ψです I LIKE YOU
でんぱ組.inc

BASIC

Level: 3
BPM: 220
Notes: 251

1
口口口口 |----|
口口口口 |----|
口口口口 |----|
口口口口 |----|
2
口口口口 |----|
口口口口 |----|
口①①口 |①---|
口口口口 |----|
3
口口口① |①---|
口口口② |----|
口口口口 |②---|
口口口口 |----|
4
口口口口 |①---|
口②②口 |----|
口口口① |②---|
口口口口 |----|
5
①口口口 |①---|
②口口口 |----|
口口口口 |②---|
口口口口 |----|
6
口口口口 |①---|
口②②口 |----|
①口口口 |②---|
口口口口 |----|
7
口口口① |①---|
口口口② |----|
口口口口 |②---|
口口口口 |----|
8
口口口口 |①---|
口②②口 |----|
口口口① |②---|
口口口口 |----|
9
①口口① |①---|
口口口口 |----|
口口口口 |----|
口口口口 |----|
10
①口口① |①---|
口口口口 |----|
口口口口 |----|
口口口口 |----|
11
口口口口 |①---|
口口口口 |----|
口①①口 |----|
口口口口 |----|
12
口口口② |①---|
口口口① |----|
口口口口 |②---|
口口口口 |----|
13
口口口口 |①---|
口口口口 |----|
口①①口 |----|
口口口口 |----|
14
②口口口 |①---|
①口口口 |----|
口口口口 |②---|
口口口口 |----|
15
口口口口 |①---|
口口口口 |----|
口①①口 |----|
口口口口 |----|
16
口口口② |①---|
口口口① |----|
口口口口 |②---|
口口口口 |----|
17
口口口口 |①---|
口口口口 |----|
口①①口 |----|
口口口口 |----|
18
口口口口 |①---|
口①①口 |----|
口口口口 |----|
口口口口 |----|
19
口口口口 |①---|
口口口口 |----|
口①①口 |----|
口口口口 |----|
20
口口口② |①---|
口口口① |----|
口口口口 |②---|
口口口口 |----|
21
口口口口 |①---|
口口口口 |----|
口①①口 |----|
口口口口 |----|
22
②口口口 |①---|
①口口口 |----|
口口口口 |②---|
口口口口 |----|
23
口口口口 |①---|
口口口口 |----|
口①①口 |----|
口口口口 |----|
24
口口口② |①---|
口口口① |----|
口口口口 |②---|
口口口口 |----|
25
口口口口 |①---|
口口口口 |----|
口①①口 |----|
口口口口 |----|
26
②②②② |①---|
口①①口 |----|
口口口口 |②---|
口口口口 |----|
27
口口口口 |①---|
口口口口 |----|
口口口① |----|
口口口口 |----|
28
口口口口 |①---|
口口①口 |----|
口口口口 |----|
口口口口 |----|
29
口口口口 |①---|
口口口口 |----|
口①口口 |----|
口口口口 |----|
30
口口口口 |①---|
①口口口 |----|
口口口口 |----|
口口口口 |----|
31
口口口口 |①---|
口口口口 |----|
①口口口 |----|
口口口口 |----|
32
口口口口 |①---|
口①口口 |----|
口口口口 |----|
口口口口 |----|
33
口口口口 |①---|
口口口口 |----|
口口①口 |----|
口口口口 |----|
34
口口口口 |①---|
口口口① |----|
口口口口 |----|
口口口口 |----|
35
口口口口 |①---|
口口口① |----|
口口口② |②---|
口口口口 |----|
36
口口口口 |①---|
口口②口 |----|
口口①口 |②---|
口口口口 |----|
37
口口口口 |①---|
口①口口 |----|
口②口口 |②---|
口口口口 |----|
38
口口口口 |①---|
②口口口 |----|
①口口口 |②---|
口口口口 |----|
39
口口口口 |①---|
口口口口 |----|
口①①口 |----|
口口口口 |----|
40
口口口口 |①---|
①口口① |----|
口口口口 |----|
口口口口 |----|
41
口口口口 |①---|
口口口口 |----|
口②②口 |②---|
口①①口 |----|
42
口②②口 |①---|
口①①口 |----|
口口口口 |②---|
口口口口 |----|
43
口口口口 |①---|
口口口口 |----|
口口②① |②---|
口口口口 |----|
44
口口口口 |①---|
口口口口 |----|
②①口口 |②---|
口口口口 |----|
45
口口口口 |①---|
①②口口 |----|
口口口口 |②---|
口口口口 |----|
46
口口口口 |①---|
口口①② |----|
口口口口 |②---|
口口口口 |----|
47
口口口口 |①---|
口口口口 |----|
口口②① |②---|
口口口口 |----|
48
口口口口 |①---|
口口口口 |----|
②①口口 |②---|
口口口口 |----|
49
口口口口 |①---|
口口口口 |----|
口②②口 |②---|
口①①口 |----|
50
②口口② |①---|
口①①口 |----|
口口口口 |②---|
口口口口 |----|
51
口口口口 |①---|
口口口口 |----|
口①①口 |②---|
口②②口 |----|
52
①①①① |①---|
口口口口 |----|
口②②口 |②---|
口口口口 |----|
53
口口口③ |①---|
口口口② |②---|
口口口① |③---|
口口口口 |----|
54
口口口口 |①---|
口口口口 |②---|
口②①口 |③---|
口④③口 |④---|
55
③口口口 |①---|
②口口口 |②---|
①口口口 |③---|
口口口口 |----|
56
口口口口 |①---|
口口①口 |②---|
口口②口 |③---|
口口③口 |----|
57
口口口口 |①---|
口①口口 |②---|
口②口口 |③---|
口③口口 |----|
58
②口口② |①---|
口口口口 |----|
①口口① |②---|
口口口口 |----|
59
口②②口 |①---|
口口口口 |----|
口①①口 |②---|
口口口口 |----|
60
口口口口 |①---|
口口口口 |②---|
口①②口 |③---|
口③④口 |④---|
61
口口口③ |①---|
口口口② |②---|
口口口① |③---|
口口口口 |----|
62
口口口口 |①---|
口口口口 |②---|
口②①口 |③---|
口④③口 |④---|
63
③口口口 |①---|
②口口口 |②---|
①口口口 |③---|
口口口口 |----|
64
口口口口 |①---|
口口口口 |----|
口①①口 |②---|
口②②口 |----|
65
口口口③ |①---|
口口口② |②---|
口口口① |③---|
口口口口 |----|
66
口口口口 |①---|
口口口口 |----|
口①①口 |②---|
口②②口 |----|
67
③口口口 |①---|
②口口口 |②---|
①口口口 |③---|
口口口口 |----|
68
口口口口 |①---|
口口口口 |----|
口①①口 |②---|
口②②口 |----|
69
口口口③ |①---|
口口口② |②---|
口口口① |③---|
口口口口 |----|
70
口口口口 |①---|
口口口口 |----|
口①①口 |②---|
口②②口 |----|
71
口口口口 |①---|
②口口② |----|
①口口① |②---|
口口口口 |----|
72
①①①① |①---|
口口口口 |----|
口口口口 |----|
口口口口 |----|
73
口口口口 |----|
口口口口 |----|
口口口口 |----|
口口口口 |----|
74
口口口口 |①---|
口口②① |----|
口口口口 |②---|
口口口口 |----|
75
口口口口 |①---|
②①口口 |----|
口口口口 |②---|
口口口口 |----|
76
口口口口 |①---|
口口口口 |----|
①②口口 |②---|
口口口口 |----|
77
口口口口 |①---|
口口口口 |----|
口口①② |②---|
口口口口 |----|
78
口口口口 |①---|
口口口口 |②---|
口②②口 |----|
口①①口 |----|
79
②口口② |①---|
①口口① |②---|
口口口口 |----|
口口口口 |----|
80
口口口口 |①---|
②②①① |----|
口口口口 |②---|
口口口口 |----|
81
口口口口 |①---|
口口口口 |----|
②②①① |②---|
口口口口 |----|
82
口口口口 |①---|
②②①① |----|
口口口口 |②---|
口口口口 |----|
83
口口口口 |①---|
口口口口 |----|
②②①① |②---|
口口口口 |----|
84
口口口口 |----|
口口口口 |①---|
口口口口 |②---|
③②①口 |③---|
85
口口口口 |①---|
②口口口 |②---|
①口口口 |----|
口口口口 |----|
86
口口口口 |----|
口口口口 |①---|
口口口口 |②---|
口①②③ |③---|
87
口口口口 |①---|
口口口② |②---|
口口口① |----|
口口口口 |----|
88
口口口口 |----|
口口口口 |①---|
口口口口 |②---|
③②①口 |③---|
89
口③③口 |①---|
②口口口 |②---|
①口口口 |----|
口口口口 |③---|
90
口口口口 |①---|
口口口口 |----|
口①①口 |②---|
口②②口 |----|
91
口口口口 |①---|
②口口② |----|
①口口① |②---|
口口口口 |----|
92
①①①① |①---|
口口口口 |----|
口口口口 |----|
口口口口 |----|
93
口口口口 |----|
口口口口 |----|
口口口口 |----|
口口口口 |----|
94
口口口口 |①---|
口口口口 |----|
口①①口 |----|
口口口口 |----|
95
口口口口 |①---|
口①①口 |----|
口口口口 |----|
口口口口 |----|

不確定度: 0

最終更新:2017年08月03日 01:48