Ψです I LIKE YOU
でんぱ組.inc

ADVANCED

Level: 6
BPM: 220
Notes: 369

1
口口口口 |----|
口口口口 |----|
口口口口 |----|
口口口口 |----|
2
口口口口 |----|
口口口口 |----|
口口口口 |①---|
口①①口 |----|
3
口口口口 |①---|
口口口口 |②---|
④③②① |③---|
口口口口 |④---|
4
口口口④ |①-----|
口口口③ |②---③-|
口口口口 |----④-|
口②①口 |------|
5
口口口口 |①---|
口口口口 |②---|
①②③④ |③---|
口口口口 |④---|
6
④口口口 |①-----|
③口口口 |②---③-|
口口口口 |----④-|
口①②口 |------|
7
口口口口 |①---|
口口口口 |②---|
④③②① |③---|
口口口口 |④---|
8
口口口④ |①-----|
口口口③ |②---③-|
口口口口 |----④-|
口②①口 |------|
9
④口口口 |①-----|
③口口口 |②---③-|
口①②口 |----④-|
口口口口 |------|
10
口口口④ |①-----|
口口口③ |②---③-|
口口口口 |----④-|
口②①口 |------|
11
口口④④ |①-----|
口①口口 |②-----|
口口②口 |③-----|
口③口口 |----④-|
12
③口口口 |----|
②口口口 |①---|
①口口口 |②---|
口口口口 |③---|
13
④④口口 |①-----|
口口①口 |②-----|
口②口口 |③-----|
口口③口 |----④-|
14
口口口① |----|
口口口② |①---|
口口口③ |②---|
口口口口 |③---|
15
口口④④ |①-----|
口①口口 |②-----|
口口②口 |③-----|
口③口口 |----④-|
16
③口口口 |----|
②口口口 |①---|
①口口口 |②---|
口口口口 |③---|
17
口口口口 |①---|
口口①口 |②---|
口②口口 |③---|
口口③口 |----|
18
③口口② |①---|
①口口① |----|
口口口口 |②---|
口口口口 |③---|
19
口口④④ |①-----|
口①口口 |②-----|
口口②口 |③-----|
口③口口 |----④-|
20
③口口口 |----|
②口口口 |①---|
①口口口 |②---|
口口口口 |③---|
21
④④口口 |①-----|
口口①口 |②-----|
口②口口 |③-----|
口口③口 |----④-|
22
口口口① |----|
口口口② |①---|
口口口③ |②---|
口口口口 |③---|
23
口口④④ |①-----|
口①口口 |②-----|
口口②口 |③-----|
口③口口 |----④-|
24
③口口口 |----|
②口口口 |①---|
①口口口 |②---|
口口口口 |③---|
25
口口口口 |①---|
口口①口 |②---|
口②口口 |③---|
口口③口 |----|
26
②②②② |①---|
①口口① |----|
口口口口 |②---|
口口口口 |----|
27
口口口口 |①---|
口口口口 |----|
②口口口 |②---|
口口口① |----|
28
②口口口 |①---|
口口口① |----|
口口口口 |②---|
口口口口 |----|
29
口口口① |①---|
②口口口 |----|
口口口口 |②---|
口口口口 |----|
30
口口口口 |①---|
口口口口 |----|
口口口① |----|
口口口口 |----|
31
口口口口 |①---|
口口口口 |----|
口口口② |②---|
①口口口 |----|
32
口口口② |①---|
①口口口 |----|
口口口口 |②---|
口口口口 |----|
33
①口口口 |①---|
口口口② |----|
口口口口 |②---|
口口口口 |----|
34
口口口口 |①---|
口口口口 |----|
①口口口 |②---|
口口口② |----|
35
口口口口 |①---|
口口口口 |----|
口口②② |②---|
①①口口 |----|
36
口口②② |①---|
①①口口 |----|
口口口口 |②---|
口口口口 |----|
37
①①口口 |①---|
口口②② |----|
口口口口 |②---|
口口口口 |----|
38
口口口口 |①---|
口口口口 |----|
①①口口 |②---|
口②②口 |----|
39
口口口口 |①---|
①口口① |----|
口口②口 |----|
口口口口 |②---|
40
口口口口 |①---|
口口口口 |----|
口①口口 |----|
口②口口 |②---|
41
口口口口 |①---|
口④③口 |②---|
口②①口 |③---|
口口口口 |④---|
42
①②②① |①---|
口口口口 |----|
口口口口 |②---|
口口口口 |----|
43
口口口口 |①---|
口③口① |②---|
④口②口 |③---|
口口口口 |④---|
44
口口④④ |①---|
口口口③ |②---|
口口口② |③---|
口口口① |④---|
45
口口口口 |①---|
①口③口 |②---|
口②口④ |③---|
口口口口 |④---|
46
④④口口 |①---|
③口口口 |②---|
②口口口 |③---|
①口口口 |④---|
47
口口口口 |①---|
口③口① |②---|
④口②口 |③---|
口口口口 |④---|
48
口口④④ |①---|
口口口③ |②---|
口口口② |③---|
口口口① |④---|
49
口口口口 |①---|
①口口② |----|
口①②口 |②---|
口口口口 |----|
50
口①①口 |①---|
口②②口 |②---|
口③③口 |③---|
口口口口 |----|
51
口口口口 |①---|
②口口① |②---|
口口口口 |③---|
口③③口 |----|
52
①①①① |①---|
口口口口 |----|
②③口口 |②---|
口口口口 |③---|
53
口口口③ |①---|
口口③② |②---|
口口②① |③---|
口口①口 |----|
54
口口口口 |①---|
口口口口 |②---|
①②④③ |③---|
口口口口 |④---|
55
③口口口 |①---|
②③口口 |②---|
①②口口 |③---|
口①口口 |----|
56
④口口④ |①---|
口③③口 |②---|
口口①口 |③---|
口口②口 |④---|
57
口口口口 |①---|
口③③口 |②---|
口①口口 |③---|
口②口口 |----|
58
口①①口 |①---|
①口口① |----|
②口口② |②---|
口②②口 |----|
59
④口口④ |①---|
口①①口 |②---|
口②②口 |③---|
口③③口 |④---|
60
口口口口 |①---|
口口口口 |②---|
③④②① |③---|
口口口口 |④---|
61
口口口③ |①---|
口口③② |②---|
口口②① |③---|
口口①口 |----|
62
口口口口 |①---|
口口口口 |②---|
①②④③ |③---|
口口口口 |④---|
63
③口口口 |①---|
②③口口 |②---|
①②口口 |③---|
口①口口 |----|
64
口口口口 |①---|
口口口口 |②---|
口口口口 |③---|
③④②① |④---|
65
口口口③ |①---|
口口口② |②---|
口口口① |③---|
口口口口 |----|
66
口口口口 |①---|
口口口口 |②---|
口口口口 |③---|
①②④③ |④---|
67
③口口口 |①---|
②口口口 |②---|
①口口口 |③---|
口口口口 |----|
68
口口口口 |①---|
口口口口 |②---|
口口口口 |③---|
③④②① |④---|
69
口口口③ |①---|
口口口② |②---|
口④④① |③---|
口口口口 |④---|
70
口口口口 |①---|
②口口② |----|
口口口口 |②---|
口①①口 |----|
71
口口口口 |①---|
口口口口 |----|
②口口② |②---|
①口口① |----|
72
①①①① |①---|
口口口口 |----|
口口口口 |----|
口口口口 |----|
73
口口口口 |----|
口口口口 |----|
口口口口 |----|
口口口口 |----|
74
口②①口 |①---|
口④③口 |②---|
口口口口 |③---|
口口口口 |④---|
75
口口口口 |①---|
口口口口 |②---|
口②①口 |③---|
口④③口 |④---|
76
②口口① |①---|
④口口③ |②---|
口口口口 |③---|
口口口口 |④---|
77
口口口口 |①---|
口口口口 |②---|
②口口① |③---|
④口口③ |④---|
78
口口口口 |①---|
②口口② |②---|
口口口口 |----|
口①①口 |----|
79
②口口② |①---|
口口口口 |②---|
口①①口 |----|
口口口口 |----|
80
口口口口 |①---|
口口口口 |②---|
口口口口 |③---|
③④②① |④---|
81
口口口口 |①---|
口口口口 |②---|
③④②① |③---|
口口口口 |④---|
82
口口口口 |①---|
③④②① |②---|
口口口口 |③---|
口口口口 |④---|
83
③④②① |①---|
口口口口 |②---|
口口口口 |③---|
口口口口 |④---|
84
口口口口 |----|
口口①口 |①---|
②口口口 |②---|
口口③口 |③---|
85
②口口② |①---|
口口口口 |②---|
口①①口 |----|
口口口口 |----|
86
口口口口 |----|
口①口口 |①---|
口口口② |②---|
口③口口 |③---|
87
②口口② |①---|
口口口口 |②---|
口①①口 |----|
口口口口 |----|
88
口口口口 |----|
口口①口 |①---|
②口口口 |②---|
口口③口 |③---|
89
②③③② |①---|
口口口口 |②---|
口①①口 |----|
口口口口 |③---|
90
口口口口 |①---|
②口口② |----|
口口口口 |②---|
口①①口 |----|
91
口口口口 |①---|
口口口口 |----|
②口口② |②---|
①口口① |----|
92
①①①① |①---|
口口口口 |----|
口口口口 |----|
口口口口 |----|
93
口口口口 |----|
口口口口 |----|
口口口口 |----|
口口口口 |----|
94
口口口④ |①-----|
口口口③ |②---③-|
口②①口 |----④-|
口口口口 |------|
95
④口口口 |①-----|
③口口口 |②---③-|
口口口口 |----④-|
口①②口 |------|

不確定度: 0

最終更新:2017年08月03日 01:48