eyes
小野秀幸

ADVANCED

Level: 7
BPM: 300
Notes: 388

实际BPM: 150
1
口口口口 |----|
口口口口 |----|
口口口口 |----|
口口口口 |----|
2
②①③④ |----|
⑦⑥⑤口 |①②-③|
口口口口 |④-⑤-|
口口口口 |⑥-⑦-|
3
⑧⑦⑨⑩ |①②-③|
口口口口 |④-⑤-|
④③①② |⑥-⑦⑧|
口⑥⑤口 |-⑨⑩-|
4
口口口口 |①-②-|
③②①口 |③-④⑤|
⑦⑥④⑤ |-⑥⑦-|
口⑨⑧口 |⑧-⑨-|
5
②①③④ |①②-③|
⑦⑥⑤口 |④-⑤-|
口⑩⑧⑨ |⑥-⑦-|
口口口口 |⑧⑨-⑩|
6
⑤④⑥⑦ |①-②-|
口⑨⑧口 |③-④⑤|
①口口口 |-⑥⑦-|
口③②口 |⑧-⑨-|
7
⑧口口⑧ |①-②③|
①口口口 |-④⑤-|
⑤④②③ |⑥-⑦-|
口⑦⑥口 |⑧---|
8
口口口口 |①---|
口②③口 |②③--|
口口口口
①口口①

口口口口
口口口口
④口口⑤ |④-⑤-|
⑥口口⑥ |--⑥-|
9
①口口① |-①--|
②⑤⑥② |②---|
口③④口 |③④--|
口口口口 |⑤⑥--|
10
⑤口口口 |①-②-|
③口口④ |--③-|
①口口② |-④--|
口口口口 |⑤---|
11
口口口① |①---|
口②③口 |②③--|
④口口⑤ |④-⑤-|
⑥口口⑥ |--⑥-|
12
口口口口 |-①--|
①口口① |----|
口口口口 |----|
口口口口 |----|
13
口①①口 |----|
②③④口 |①---|
口⑤⑤口 |②-③-|
口口口口 |④--⑤|
14
口口口口 |----|
口口口口 |----|
口口口口 |--①-|
口①①口 |----|
15
口①①口 |①---|
口②②口 |--②-|
口口口口 |----|
口口口口 |----|
16
①口口② |①---|
口口口口 |②---|
口口口口 |③---|
③口口④ |④---|
17
口①①口 |----|
②③④口 |①---|
口⑤⑤口 |②-③-|
口口口口 |④--⑤|
18
口口口口 |----|
口口口口 |----|
口口口口 |--①-|
口①①口 |----|
19
口①①口 |①---|
口口口口 |--②-|
口口口口
口②②口

口③③口
口口口口
口口口口 |----|
口口口口 |--③-|
20
口口口口 |----|
①口口① |--①-|
①口口① |----|
口口口口 |----|
21
口①①口 |----|
②③④口 |①---|
口⑤⑤口 |②-③-|
口口口口 |④--⑤|
22
口口口口 |----|
口口口口 |----|
口口口口 |--①-|
口①①口 |----|
23
口①①口 |①---|
口②②口 |--②-|
口口口口 |----|
口口口口 |----|
24
①口口② |①---|
口口口口 |②---|
口口口口 |③---|
③口口④ |④---|
25
口①①口 |----|
②③④口 |①---|
口⑤⑤口 |②-③-|
口口口口 |④--⑤|
26
口口口口 |----|
口口口口 |----|
口口口口 |--①-|
口①①口 |----|
27
口①①口 |①---|
口口口口 |--②-|
口口口口
口②②口

口③③口
口口口口
口口口口 |----|
口口口口 |--③-|
28
口口口口 |----|
①口口① |--①-|
①口口① |----|
口口口口 |----|
29
②①③④ |----|
口口口口 |①-②-|
口口口口 |--③-|
口口口口 |④---|
30
口口口口 |①-②-|
②①③④ |--③-|
口口口口 |④---|
口⑤⑤口 |⑤---|
31
口口口口 |①---|
③②②③ |②--③|
口①①口 |--④-|
④口口④ |----|
32
①口口② |①---|
口口口口 |②---|
口口口口 |③---|
③口口④ |④---|
33
②①③④ |----|
口口口口 |①-②-|
口口口口 |--③-|
口口口口 |④---|
34
口口口口 |①-②-|
②①③④ |--③-|
口口口口 |④---|
口⑤⑤口 |⑤---|
35
口口口口 |①---|
③②②③ |②--③|
口①①口 |--④-|
④口口④ |----|
36
①口口② |①---|
口口口口 |②---|
口口口口 |③---|
③口口④ |④---|
37
②①③④ |----|
口口口口 |①-②-|
口口口口 |--③-|
口口口口 |④---|
38
口口口口 |①-②-|
②①③④ |--③-|
口口口口 |④---|
口⑤⑤口 |⑤---|
39
口口口口 |①---|
③②②③ |②--③|
口①①口 |--④-|
④口口④ |----|
40
①口口② |①---|
口口口口 |②---|
口口口口 |③---|
③口口④ |④---|
41
②①③④ |----|
口口口口 |①-②-|
口口口口 |--③-|
口口口口 |④---|
42
口口口口 |①-②-|
②①③④ |--③-|
⑥⑤口口 |④---|
口口口口 |⑤-⑥-|
43
口口口口 |--①-|
口口口口 |②---|
口口①② |③-④-|
④③⑤口 |--⑤-|
44
③②②③ |①---|
③②②③ |②-③-|
口口口口 |----|
口口口① |----|
45
口口口口 |----|
口①②口 |①--②|
口③④口 |--③-|
口口口口 |--④-|
46
口③③口 |--①-|
口口口口 |--②-|
口口口口 |----|
①口口② |--③-|
47
口口口口 |①--②|
①④④① |--③-|
②⑤⑤② |--④-|
③口口③ |-⑤--|
48
口口口口 |①---|
口口口口 |----|
口口口口 |----|
口①①口 |----|
49
②①③④ |----|
②①③④ |①---②-|
口口口口 |----③-|
口口口口 |--④---|
50
口⑤⑤口 |--①---|
口口口口 |②---|
②①③④ |③---④-|
②①③④ |----⑤-|
51
①口口① |--①---|
口口口口 |----|
②口口③ |--②-|
口口口口 |-③--|
52
口③③口 |①---|
口②②口 |②-③-|
⑤口口⑤ |-④--|
④①①④ |-⑤--|
53
口口口口 |-①--|
①口口① |----|
口口口口
口口口口

口口口口
口②③④
口口口口 |②-③-|
口口口口 |④---|
54
①口口② |①---|
③口口④ |②---|
口口口口 |③---|
口口口口 |④---|
55
口口口口 |①---|
口口口口 |②---|
口①①口
②口口②

口口口口
口口口口
口口③口 |----|
口口口口 |③---|
56
口口口口 |①---|
口③③口 |②---|
②①口口 |----|
口口口口 |③---|
57
②①①③ |①---|
④口口口 |②---|
口口口口 |③---|
口口口口 |④---|
58
口口口口 |①---|
口口口① |②---|
④②②④ |③--④|
口③③口 |----|
59
①口口② |①---|
③口口④ |②---|
口口口口 |③---|
口口口口 |④---|
60
口口口口 |①---|
口口口口 |②---|
①口口② |③---|
口③③口 |----|
61
②①③④ |①②-③|
⑦⑥⑤口 |④-⑤-|
口⑩⑧⑨ |⑥-⑦-|
口口口口 |⑧⑨-⑩|
62
⑤④⑥⑦ |①-②-|
口⑨⑧口 |③-④⑤|
①口口口 |-⑥⑦-|
口③②口 |⑧-⑨-|
63
⑨⑧⑩口 |①-②③|
①口口口 |-④⑤-|
⑤④②③ |⑥-⑦-|
口⑦⑥口 |⑧⑨-⑩|
64
口口口① |①-②-|
④③②口 |③-④-|
⑧⑦⑤⑥ |⑤⑥-⑦|
口口⑨口 |⑧-⑨-|
65
③②④⑤ |①-②③|
⑧⑦⑥口 |-④⑤-|
口口⑨⑩ |⑥-⑦-|
口①口口 |⑧-⑨⑩|
66
口口口口 |-①②-|
口口口口 |③-④-|
②①口口 |----|
口④③口 |----|


不确定度: 0

最終更新:2012年11月11日 16:30