Amalgamation
Mystic Moon

EXTREME

Level: 9
BPM: 166
Notes: 722

1
口口口口 |----|
口口口口 |----|
口口口口 |----|
口口口口 |----|
2
①口口① |①-②-|
③⑤②口 |③-④-|
口⑦④⑥ |⑤-⑥-|
口口口⑧ |⑦-⑧-|
3
口口口⑧ |①-②-|
口⑦④⑥ |③-④-|
③⑤②口 |⑤-⑥-|
①口口口 |⑦-⑧-|
4
口口口⑧ |①-②-|
口⑦④⑥ |③-④-|
③⑤②口 |⑤-⑥-|
①口口① |⑦-⑧-|
5
①口口口 |①-②-|
③⑤②口 |③-④-|
口⑦④⑥ |⑤-⑥-|
口口口⑧ |⑦-⑧-|
6
①①①① |①-②-|
③⑤②口 |③-④-|
口⑦④⑥ |⑤-⑥-|
口口口⑧ |⑦-⑧-|
7
口⑤口⑧ |①-②-|
口⑦④⑥ |③-④-|
③⑤②口 |⑤-⑥-|
①⑦口口 |⑦-⑧-|
8
口口口⑧ |①-②-|
口⑦④⑥ |③-④-|
③⑤②口 |⑤-⑥-|
①口口① |⑦-⑧-|
9
①⑦口口 |①-②-|
③⑤②口 |③-④-|
口⑦④⑥ |⑤-⑥-|
口⑤口⑧ |⑦-⑧-|
10
①口口① |①---|
③⑤⑤② |②--③|
④⑥⑥③ |--④-|
②口口④ |⑤-⑥-|
11
⑦口口口 |①-②-|
⑤口口③ |③-④-|
⑧口口⑥ |⑤-⑥-|
②①①④ |⑦-⑧-|
12
⑤口⑤① |①-②-|
口②⑤口 |③-④-|
口⑥③口 |⑤---|
④⑥口⑥ |⑥---|
13
③口口口 |①---|
口②④② |②---|
①⑤①口 |③-④-|
口口口⑥ |⑤-⑥-|
14
口⑤口口 |①②③-|
口③口④ |④-⑤-|
口口②口
口①口口

⑥口⑥口
口口⑥口
口⑦口口 |⑥---|
口⑦⑧⑦ |⑦-⑧-|
15
口口⑥② |①---|
②⑤口② |②---|
①③④① |③-④-|
①③口③ |⑤-⑥-|
16
口⑧口口 |①-②-|
口⑦⑥⑤ |③-④-|
⑤④口① |⑤-⑥-|
①③②口 |⑦-⑧-|
17
⑦口⑧⑤ |①-②-|
⑤⑥口口 |③-④-|
③口④① |⑤-⑥-|
①②口口 |⑦-⑧-|
18
⑤⑥口⑤ |①-②-|
⑦口⑧① |③-④-|
①②口口 |⑤-⑥-|
③口④口 |⑦-⑧-|
19
⑤⑥⑤口 |①-②-|
⑦①⑦① |③-④-|
口⑧②口 |⑤-⑥-|
口③④③ |⑦-⑧-|
20
⑤口⑤① |①-②-|
口②⑤口 |③-④-|
口⑥③口 |⑤---|
④⑥口⑥ |⑥---|
21
③口口口 |①---|
口②④② |②---|
①⑤①口 |③-④-|
口口口⑥ |⑤-⑥-|
22
口⑤口口 |①②③-|
口③口④ |④-⑤-|
口口②口
口①口口

⑥口⑥口
口口⑥口
口⑦口口 |⑥---|
口⑦⑧⑦ |⑦-⑧-|
23
口口⑥② |①---|
②⑤口② |②---|
①③④① |③-④-|
①③口③ |⑤-⑥-|
24
口⑧口口 |①-②-|
口⑦⑥⑤ |③-④-|
⑤④口① |⑤-⑥-|
①③②口 |⑦-⑧-|
25
⑦口口⑤ |①-②-|
⑤⑥口⑧ |③-④-|
③口④① |⑤-⑥-|
①②口口 |⑦-⑧-|
26
口①①口 |①-②-|
口⑧口⑨ |③-④-|
⑤②⑦⑤ |⑤-⑥⑦|
③⑥④③ |⑧-⑨-|
27
①①①① |①---|
口口口口 |②---|
②口口②
口口口口

⑥口口口
口口口⑤
口④口口 |③-④-|
③③③③ |⑤-⑥-|
28
口口①① |①---|
口④口口 |②---|
口口②口 |③---|
③③口口 |④---|
29
⑥⑥口口 |①---|
⑤⑤①① |②---|
④④口口 |③-④-|
③③②口 |⑤-⑥-|
30
口口⑤④ |①②③-|
口口③口 |④⑤--|
口口口②
口口①口

⑦⑧口口
口口口口
⑥口⑥口 |⑥--⑦|
口⑨⑨口 |⑧-⑨-|
31
口口口口 |①-②-|
④③口口 |③④--|
口口口①
②口口口

口口⑤⑤
口口⑥⑥
口口⑦⑦ |⑤-⑥-|
口口⑧⑧ |⑦-⑧-|
32
①①口口 |①---|
口④口口 |②---|
口②口口 |③---|
③③口口 |④---|
33
⑥⑥口口 |①---|
⑤⑤①① |②---|
④④口口 |③-④-|
③③②口 |⑤-⑥-|
34
口口⑤④ |①②③-|
口口③口 |④⑤--|
口口口②
口口①口

⑦⑧口口
口口口口
⑥口⑥口 |⑥--⑦|
口⑨⑨口 |⑧-⑨-|
35
口口口口 |①-②-|
④③⑤口 |③④--|
⑧⑦⑥① |⑤-⑥-|
②口口口 |⑦-⑧-|
36
①口①② |①-②③|
口⑩⑩③ |④⑤⑥⑦|
口⑨⑨④ |⑧--⑨|
⑧⑦⑥⑤ |--⑩-|
37
②①口① |①-②③|
③⑩⑩口 |④⑤⑥⑦|
④⑨⑨口 |⑧--⑨|
⑤⑥⑦⑧ |--⑩-|
38
①口①② |①-②③|
口口口③ |④⑤⑥⑦|
口口口④
口⑦⑥⑤

⑩⑩⑩⑩
口口口口
口⑨⑨口 |⑧--⑨|
⑧口口口 |--⑩-|
39
口口口口 |--①-|
①口口② |--②-|
口口口口
口②①口

口③口口
④④④口
口③口口 |--③-|
口口口口 |--④-|
40
①口①② |①-②③|
口⑩⑩③ |④⑤⑥⑦|
口⑨⑨④ |⑧--⑨|
⑧⑦⑥⑤ |--⑩-|
41
②①口① |①-②③|
③⑩⑩口 |④⑤⑥⑦|
④⑨⑨口 |⑧--⑨|
⑤⑥⑦⑧ |--⑩-|
42
①口①② |①-②③|
口⑩⑩③ |④⑤⑥⑦|
口⑨⑨④ |⑧--⑨|
⑧⑦⑥⑤ |--⑩-|
43
①口口④ |①-②-③-|
②口口⑤ |④-⑤-⑥-|
③口⑥口
口口口口

⑧口口口
口⑨口口
口⑩口口 |⑦---|
口⑦口⑦ |⑧-⑨-⑩-|
44
口口①口 |①-②-③-|
口口②口 |④---|
口口口③
④口④口

⑤口口⑧
⑥口口⑨
⑦口口⑩ |⑤-⑥-⑦-|
口口口口 |⑧-⑨-⑩-|
45
⑤①①⑤ |①---②-|
⑥②②⑥ |--③---|
口③③口 |④---⑤-|
口④④口 |--⑥---|
46
口口口口 |①---②-|
口③③口 |--③---|
①口口① |④---|
②④④② |----|
47
口口口口 |----|
口口口口 |----|
口口口口 |----|
口口口口 |----|
48
⑤口⑤① |①-②-|
口②⑤口 |③-④-|
口⑥③口 |⑤---|
④⑥口⑥ |⑥---|
49
③口口口 |①---|
口②④② |②---|
①⑤①口 |③-④-|
口口口⑥ |⑤-⑥-|
50
口⑤口口 |①②③-|
口③口④ |④-⑤-|
口口②口
口①口口

⑥口⑥口
口口⑥口
口⑦口口 |⑥---|
口⑦⑧⑦ |⑦-⑧-|
51
口口⑥② |①---|
②⑤口② |②---|
①③④① |③-④-|
①③口③ |⑤-⑥-|
52
口⑧口口 |①-②-|
⑦⑦⑥⑤ |③-④-|
⑤④口① |⑤-⑥-|
①③②③ |⑦-⑧-|
53
⑦⑦⑧⑤ |①-②-|
⑤口⑥口 |③-④-|
③③④① |⑤-⑥-|
①口②口 |⑦-⑧-|
54
口口口口 |①-②-|
口口口① |③-④-|
①②口口
③口④③

⑤⑥口⑤
口口⑧口
⑦口口⑦ |⑤-⑥-|
口口口口 |⑦-⑧-|
55
⑤⑥⑤口 |①-②-|
⑦①⑦① |③-④-|
口⑧②口 |⑤-⑥-|
口③④③ |⑦-⑧-|
56
⑤口⑤① |①-②-|
口②⑤口 |③-④-|
口⑦③⑧ |⑤-⑥-|
④⑦⑥⑦ |⑦-⑧-|
57
⑤口口② |①-②-|
④③⑥③ |③-④-|
①⑦①口 |⑤-⑥-|
口口口⑧ |⑦-⑧-|
58
口⑤口口 |①②③-|
口③口④ |④-⑤-|
口口②口
口①口口

口口口口
口口⑥口
口⑦⑩口 |⑥⑦⑧-|
⑨口⑧口 |⑨-⑩-|
59
①口②① |①-②-|
③口口① |③---|
③口口③
口口口口

口口⑦口
口⑥口口
口④⑤口 |④-⑤-|
口④口④ |⑥-⑦-|
60
口⑧口口 |①-②-|
⑦⑦⑥⑤ |③-④-|
⑤④口① |⑤-⑥-|
①③②③ |⑦-⑧-|
61
⑦⑦口口 |①-②-|
⑤⑤⑥⑧ |③-④-|
③③④① |⑤-⑥-|
①口②口 |⑦-⑧-|
62
口口①① |①-②-|
口⑧口⑨ |③-④-|
⑤②⑦⑤ |⑤-⑥⑦|
③⑥④③ |⑧-⑨-|
63
①①①① |①---|
口口口口 |②---|
②口口②
口口口口

⑥口口口
口口口⑤
口④口口 |③-④-|
③③③③ |⑤-⑥-|
64
口⑤⑥⑤ |①-②-|
①②①口 |③-④-|
⑦⑧⑦口 |⑤-⑥-|
口③④③ |⑦-⑧-|
65
⑤⑥⑤口 |①-②-|
口①②① |③-④-|
口⑦⑧⑦ |⑤-⑥-|
③④③口 |⑦-⑧-|
66
⑤⑦⑤⑦ |①-②-|
口②④口 |③-④-|
口⑥⑧口 |⑤-⑥-|
①③①③ |⑦-⑧-|
67
口⑧口口 |①-②-|
①口⑦③ |③-④-|
②⑥口④ |⑤-⑥-|
①口⑤③ |⑦-⑧-|
68
①口口③ |①---|
②口口口 |②--③|
口③①口
口口②口

口口口口
口口④⑤
口口⑤④ |--④-|
口⑥口⑥ |⑤-⑥-|
69
②口口口 |①---|
①③口口 |--②-|
口口口④ |③-④-|
⑥口⑤口 |⑤-⑥-|
70
口口口口 |①---|
口口口口 |----|
口口口口 |----|
口口口① |----|


不确定度: 0

タグ:

+ タグ編集
  • タグ:

このサイトはreCAPTCHAによって保護されており、Googleの プライバシーポリシー利用規約 が適用されます。

最終更新:2012年11月27日 22:01