HERO
ソナーポケット

BASIC

Level: 3
BPM: 130
Notes: 152

1
口口口口 |----|
口口口口 |----|
口口口口 |----|
口口口口 |----|
2
口口口口 |①---|
①口口① |----|
口口口口 |----|
口口口口 |----|
3
口口口口 |①---|
口口口口 |----|
口①①口 |----|
口口口口 |----|
4
口口口口 |①---|
①口口① |----|
口口口口 |----|
口口口口 |----|
5
口口口口 |①---|
口口口口 |----|
口①①口 |----|
口口口口 |----|
6
①②③④ |①---|
口口口口 |②---|
口口口口 |③---|
口口口口 |④---|
7
口口口口 |①---|
④③②① |②---|
口口口口 |③---|
口口口口 |④---|
8
口口口口 |①---|
口口口口 |②---|
①②③④ |③---|
口口口口 |④---|
9
口口口口 |①---|
口口口口 |②---|
口口口口 |③---|
④③②① |④---|
10
②口口口 |①---|
口口口口 |----|
口①①口 |②---|
口口口口 |----|
11
口口口口 |①---|
①口口口 |----|
口②②口 |②---|
口口口口 |----|
12
口口口② |①---|
口①①口 |----|
口口口口 |②---|
口口口口 |----|
13
口口口口 |①---|
口口口① |----|
口②②口 |②---|
口口口口 |----|
14
②口口口 |①---|
①口口① |----|
口口口口 |②---|
口口口口 |----|
15
口口口口 |①---|
①口口口 |----|
口②②口 |②---|
口口口口 |----|
16
口口口② |①---|
口①①口 |----|
口口口口 |②---|
口口口口 |----|
17
口口口口 |①---|
口口口① |----|
口②②口 |②---|
口口口口 |----|
18
②口口③ |①---|
①口口① |----|
口口口口 |②---|
口口口口 |③---|
19
口口口口 |----|
①口口② |----|
口口口口 |①---|
口口口口 |②---|
20
口口口口 |----|
口口口口 |----|
①口口② |①---|
口口口口 |②---|
21
口口口口 |----|
口口口口 |----|
口口口口 |①---|
①口口② |②---|
22
口口口口 |①---|
①②③④ |②---|
口口口口 |③---|
口口口口 |④---|
23
口口口口 |①---|
口口口口 |②---|
④③②① |③---|
口口口口 |④---|
24
口口口口 |①---|
①②③④ |②---|
口口口口 |③---|
口口口口 |④---|
25
口口口口 |①---|
口口口口 |②---|
④③②① |③---|
口口口口 |④---|
26
口口口口 |①---|
口①①口 |----|
口口口口 |----|
口口口口 |----|
27
①②口口 |①---|
口口④③ |②---|
口口口口 |③---|
口口口口 |④---|
28
口口口口 |①---|
口口口口 |②---|
①②口口 |③---|
口③③口 |----|
29
口口口口 |①---|
口口口口 |②---|
③口口④ |③---|
①口口② |④---|
30
口③③口 |①---|
①口口② |②---|
口口口口 |③---|
口口口口 |----|
31
口口②① |①---|
③④口口 |②---|
口口口口 |③---|
口口口口 |④---|
32
口口口口 |①---|
口口口口 |②---|
口口②① |③---|
口③③口 |----|
33
口口口口 |①---|
口口口口 |②---|
④口口③ |③---|
②口口① |④---|
34
口③③口 |①---|
②口口① |②---|
口口口口 |③---|
口口口口 |----|
35
②口口② |①---|
口口口口 |----|
口①①口 |②---|
口口口口 |----|
36
口口口口 |①---|
①②③④ |②---|
口口口口 |③---|
口口口口 |④---|
37
②口口② |①---|
口口口口 |----|
口①①口 |②---|
口口口口 |----|
38
口口口口 |①---|
④③②① |②---|
口口口口 |③---|
口口口口 |④---|
39
②口口② |①---|
口口口口 |----|
口①①口 |②---|
口口口口 |----|
40
口口口口 |①---|
①②③④ |②---|
口口口口 |③---|
口口口口 |④---|
41
②口口② |①---|
口口口口 |----|
口①①口 |②---|
口口口口 |----|
42
口口口口 |①---|
④③②① |②---|
口口口口 |③---|
口口口口 |④---|
43
①口口① |①---|
口口口口 |----|
口口口口 |----|
口口口口 |----|
44
口口口口 |①---|
口口口口 |----|
口①①口 |----|
口口口口 |----|
45
①口口① |①---|
口口口口 |----|
口口口口 |----|
口口口口 |----|
46
口口口口 |①---|
②②②② |----|
口①①口 |②---|
口口口口 |----|

不確定度: 0

最終更新:2017年08月03日 01:45