HERO
ソナーポケット

ADVANCED

Level: 6
BPM: 130
Notes: 331

1
口口口口 |----|
口口口口 |----|
口口口口 |----|
口口口口 |----|
2
口口口口 |①---|
②③④⑤ |----|
口口口口 |--②③|
①①①① |④⑤--|
3
①口口① |①---|
③口口③ |----|
口口口口 |②--③|
口②②口 |----|
4
口口口口 |①---|
⑤④③② |----|
口口口口 |--②③|
①口口① |④⑤--|
5
①口口① |①---|
③口口③ |----|
口口口口 |②--③|
口②②口 |----|
6
口口口口 |①---|
②③④⑤ |----|
口口口口 |--②③|
①口口① |④⑤--|
7
①口口① |①---|
③口口③ |----|
口口口口 |②--③|
口②②口 |----|
8
口口口口 |①---|
⑤④③② |----|
口口口口 |--②③|
①口口① |④⑤--|
9
①口口① |①---|
口口口口 |----|
口②②口 |②---|
口口口口 |----|
10
口口口口 |①---|
②口口口 |--②-|
口口口口
①①①①

口口口口
口③口口
口口⑤④ |③-④-|
⑥口口口 |⑤-⑥-|
11
口口口口 |①---|
口口③② |②-③-|
口口口口
口①口口

口口口口
口口口口
口口口口 |--④-|
口④口口 |----|
12
①②口口 |----|
口口④③ |--①-|
⑤口口口 |②-③-|
口口口口 |④-⑤-|
13
口口口口 |①---|
④口③口 |--②-|
口①口② |③---|
口口口口 |--④-|
14
口口口口 |①---|
口口口② |--②-|
口①口口
口口口口

口口口口
口口③口
④⑤口口 |③-④-|
口口口⑥ |⑤-⑥-|
15
口口口口 |①---|
②③口口 |②-③-|
口口口口
口口①口

口口口口
口口口口
口口口口 |--④-|
口口④口 |----|
16
口口②① |----|
③④口口 |--①-|
口口口⑤ |②-③-|
口口口口 |④-⑤-|
17
口口口口 |①---|
口③口④ |--②-|
②口①口 |③---|
口口口口 |--④-|
18
②口口口 |①-②-|
③口⑤口 |③-④-|
口④①⑥ |⑤-⑥-|
口口口⑦ |⑦---|
19
口口口① |--①-|
口④口② |②-③-|
⑤口③口 |④-⑤-|
⑥口口口 |⑥---|
20
①口口口 |--①-|
②口④口 |②-③-|
口③口⑤ |④-⑤-|
口口口⑥ |⑥---|
21
口④口口 |①---|
口③口⑤ |②-③-|
②①①⑥ |④---|
口口口口 |⑤-⑥-|
22
⑦口口⑥ |--①-|
口③口⑤ |②-③-|
②口④口 |④-⑤-|
①口口口 |⑥-⑦-|
23
口口口口 |①-②-|
①口③口 |③-④-|
口②④口
口口口口

口口口口
口口口⑤
口⑧口⑥ |⑤-⑥-|
口口⑦口 |⑦-⑧-|
24
口①①口 |--①-|
②口口③ |②-③-|
④口口⑤ |④-⑤-|
⑥口口⑦ |⑥-⑦-|
25
⑨⑨⑨⑨ |①②③④|
⑦⑤⑥⑧ |⑤⑥⑦⑧|
口③④口 |----|
口①②口 |--⑨-|
26
口口口口 |----|
口口口口 |----|
①口口① |----|
②口口② |①-②-|
27
①口口① |①-②③|
④口口④ |④-⑤⑥|
口②③口
口⑤⑥口

口⑧⑨⑩
口⑪⑫口
⑦口口⑦ |⑦-⑧⑨|
口口口口 |⑩-⑪⑫|
28
⑤口口⑤ |①-②③|
口口口① |④-⑤-|
口②③④
口口口口

口口口口
⑦口口口
口⑧⑧口 |⑥---|
口⑥⑥口 |⑦-⑧-|
29
③口口口 |①-②-|
口④④① |③-④-|
口口口口
口②②口

口口口⑤
口口口⑧
⑦⑥⑥口 |⑤-⑥-|
口口口口 |⑦-⑧-|
30
①口口① |--①-|
口口口口 |②---|
③②②③ |----|
④口口④ |③-④-|
31
①口口① |①-②③|
④口口④ |④-⑤⑥|
口②③口
口⑤⑥口

口⑧⑨⑩
口⑪⑫口
⑦口口⑦ |⑦-⑧⑨|
口口口口 |⑩-⑪⑫|
32
④口口④ |①-②-|
②口口① |③-④-|
③口口口
口口口口

口口口口
⑥口口⑥
口⑦⑦口 |⑤---|
口⑤⑤口 |⑥-⑦-|
33
④①①④ |①---|
⑤②②⑤ |②-③-|
③⑥⑥③ |④-⑤-|
口⑦⑦口 |⑥-⑦-|
34
①口口① |--①-|
口②②口 |②---|
口口口口 |----|
口口口口 |----|
35
③口口口 |①---|
④口口② |②---|
②①①口 |③---|
口口口③ |--④-|
36
口口口口 |①-②-|
口①②口 |--③-|
口口口口
口③口口

口口口⑥
⑤⑦⑦口
口口④口 |④-⑤-|
口口口口 |⑥-⑦-|
37
口口口② |----|
①③③口 |①---|
口口口① |②---|
②④④口 |③-④-|
38
②口口① |--①-|
口⑤④③ |②-③-|
口口口口 |④-⑤-|
①⑥⑥② |⑥---|
39
③口口口 |①---|
④口口② |②---|
②①①口 |③---|
口口口③ |--④-|
40
口口口口 |①-②-|
口①②口 |--③-|
口口口口
口③口口

口口口⑥
⑤⑦⑦口
口口④口 |④-⑤-|
口口口口 |⑥-⑦-|
41
口口口② |----|
①③③口 |①---|
口口口① |②---|
②④④口 |③-④-|
42
②口口① |--①-|
口口口③ |②-③-|
口口口口
①口口②

⑦⑦⑦⑦
口⑤④口
口口口口 |④-⑤-|
口⑥⑥口 |⑥-⑦-|
43
口口口③ |①---|
②口口口 |----|
①口口① |②--③|
口口口口 |----|
44
口口口口 |①---|
口②②口 |----|
口③③口 |②---|
口①①口 |③---|
45
①口口① |①---|
口口口口 |----|
口口口口
口口口口

③口口口
口口口②
口口口口 |②--③|
口口口口 |----|
46
口口口口 |①---|
②②②② |----|
口口口口 |②---|
口①①口 |----|

不確定度: 0

最終更新:2017年08月03日 01:45