Dreamland。feat. RED RICE(from 湘南乃風), CICO(from BENNIE K)
ハジ→

ADVANCED

Level: 6
BPM: 141
Notes: 456

1
口口口口 |----|
口口口口 |----|
口口口口 |----|
口口口口 |----|
2
口口口口 |①---|
②口口口 |----|
①口口口 |②---|
口口口口 |----|
3
口口口口 |①---|
口口②口 |----|
口口①口 |②---|
口口口口 |----|
4
口口口口 |①---|
口②口口 |----|
口①口口 |②---|
口口口口 |----|
5
口口口口 |①---|
口口口② |----|
口口口① |②---|
口口口口 |----|
6
①②③④ |①---|
口口口口 |②---|
口口口口 |③---|
口口口口 |④---|
7
口口口口 |①---|
口口口口 |②---|
口口口口 |③---|
④③②① |④---|
8
口④口口 |①---|
口口口① |②---|
③口口口 |③---|
口口②口 |④---|
9
口⑧⑦口 |①-②-|
口⑥⑤口 |③-④-|
口④③口 |⑤-⑥-|
口②①口 |⑦-⑧-|
10
⑥口口⑥ |①---|
⑤口口⑤ |②-③-|
④③③④ |④-⑤-|
①②②① |⑥---|
11
⑥口口⑥ |----|
⑤口口⑤ |①-②-|
④①①④ |③-④-|
③②②③ |⑤-⑥-|
12
③①②③ |①---|
④②①④ |--②-|
⑤①②⑤ |--③-|
口②①口 |④-⑤-|
13
⑤口口⑥ |①---|
口⑤⑥口 |②---|
③②②④ |③-④-|
①③④① |⑤-⑥-|
14
⑤口口⑤ |----|
④口口④ |①-②-|
③②②③ |③-④-|
口①①口 |⑤---|
15
⑥口口⑥ |----|
⑤口口⑤ |①-②-|
④①①④ |③-④-|
③②②③ |⑤-⑥-|
16
④①②④ |①---|
口②①口 |--②-|
③①②③ |--③-|
口②①口 |-④--|
17
口口口口 |①---|
①口口① |②---|
口口口口
口②②口

口⑤⑤口
口口④④
③③口口 |③-④-|
口口口口 |⑤---|
18
口口口③ |①---|
口②口④ |②---|
口口口口 |③-④-|
口①①⑤ |--⑤-|
19
口④口口 |①-②-|
口③口⑤ |③-④-|
口口②⑥ |--⑤-|
口口①⑦ |⑥-⑦-|
20
④口②口 |----|
①口③口 |①---|
口口口口 |②-③-|
口口口口 |--④-|
21
口口口口 |①-②-|
①⑦口口 |③-④-|
②⑥口③ |--⑤-|
口⑤口④ |⑥-⑦-|
22
口口口口 |--①-|
⑥口③口 |②-③-|
口口②⑤ |--④-|
④口①口 |⑤-⑥-|
23
口④④口 |--①-|
口②②① |--②-|
口③③口 |--③-|
口口口口 |--④-|
24
①口口口 |--①-|
口口口② |②-③-|
③口口⑤ |--④-|
口④④口 |--⑤-|
25
③口④口 |--①-|
②口⑤口 |②-③-|
①口⑥口 |④-⑤-|
口口⑦口 |⑥-⑦-|
26
口口口口 |----|
口口口口 |--①-|
口口口口 |--②-|
①②口③ |--③-|
27
③口口③ |--①-|
④口口④ |--②-|
⑤②②⑤ |--③-|
口口①口 |④-⑤-|
28
口口口口 |----|
①②③口 |--①-|
口口⑤④ |②-③-|
口口口口 |④-⑤-|
29
②口口⑧ |①-②-|
③口口⑦ |③-④-|
④①口⑥ |⑤-⑥-|
口口口⑤ |⑦-⑧-|
30
⑤口④⑤ |----|
口③口口 |--①-|
口口②口 |②-③-|
口①口口 |④-⑤-|
31
口口口口 |--①-|
①口口① |--②-|
②口口②
口口口口

口口口口
口口④④
口口口口 |--③-|
③口口③ |--④-|
32
⑥口⑤口 |--①-|
口口④口 |--②-|
①①③口 |③-④-|
口口②口 |⑤-⑥-|
33
⑤⑤⑤⑤ |--①-|
口口口口 |②-③-|
①②③口 |--④-|
口④④口 |--⑤-|
34
口口口口 |----|
口口口口 |----|
口口口口 |①---|
①①①口 |----|
35
口①①① |①---|
口口口口 |----|
口口口口
口口口口

口③口口
③口口口
口口口② |②---|
口口②口 |③---|
36
口口口① |①---|
口口口口 |②---|
口口口口 |③---|
②③③③ |----|
37
①①①口 |①---|
口口口口 |----|
口口口口
口口口口

口口③口
口口口③
②口口口 |②---|
口②口口 |③---|
38
①③③口 |①---|
口口口口 |②---|
口口口口 |③---|
口口口② |----|
39
③口口③ |①---|
口②②口 |②-③-|
口口口口 |----|
口①①口 |----|
40
口④口口 |①---|
口口口① |②---|
③口口口 |③---|
口口②口 |④---|
41
口⑧⑦口 |①-②-|
口⑥⑤口 |③-④-|
口④③口 |⑤-⑥-|
口②①口 |⑦-⑧-|
42
⑥口口⑥ |①---|
⑤口口⑤ |②-③-|
④③③④ |④-⑤-|
①②②① |⑥---|
43
⑥口口⑥ |----|
⑤口口⑤ |①-②-|
④①①④ |③-④-|
③②②③ |⑤-⑥-|
44
③①②③ |①---|
④②①④ |--②-|
⑤①②⑤ |--③-|
口②①口 |④-⑤-|
45
⑤口口⑥ |①---|
口⑤⑥口 |②---|
③②②④ |③-④-|
①③④① |⑤-⑥-|
46
⑤口口⑤ |----|
④口口④ |①-②-|
③②②③ |③-④-|
口①①口 |⑤---|
47
⑥口口⑥ |----|
⑤口口⑤ |①-②-|
④①①④ |③-④-|
③②②③ |⑤-⑥-|
48
④①②④ |①---|
口②①口 |--②-|
③①②③ |--③-|
口②①口 |-④--|
49
口口口口 |①---|
①口口① |②---|
口口口口
口②②口

口⑤⑤口
口口④④
③③口口 |③-④-|
口口口口 |⑤---|
50
口③口② |①---|
口口口口 |②-③-|
口口口口
口①①口

口口口口
⑤口④口
口口口口 |④-⑤-|
口⑥⑥口 |⑥---|
51
③口②② |①---|
③口口口 |②---|
口口口① |③---|
④④口① |④---|
52
口①①口 |--①-|
口②②口 |-②--|
口③③口 |③---|
口口口口 |----|
53
①①口② |①---|
口口口② |②---|
④口口口 |③---|
④口③③ |④---|
54
口①①口 |--①-|
④②②④ |-②--|
④③③④ |③---|
口口口口 |④---|
55
①②③④ |①---|
口口口口 |②---|
口口口口 |③---|
口口口口 |④---|
56
口口口口 |①---|
口口口口 |②---|
口口口口 |③---|
④③②① |④---|
57
①口②口 |①-②-|
口③口④ |③-④-|
口口口口
口口口口

⑦口口口
口口⑥口
⑤口口口 |⑤--⑥|
口口口口 |--⑦-|
58
⑦口口⑦ |①-②-|
口①口② |③-④-|
③口④口 |⑤-⑥-|
口⑤口⑥ |⑦---|
59
口③④口 |①---|
口⑤⑥口 |②---|
①口口② |③-④-|
①口口② |⑤-⑥-|
60
④口⑤口 |--①-|
⑥口⑦口 |②-③-|
口口口口 |④-⑤-|
口①②③ |⑥-⑦-|
61
口④口⑤ |--①-|
口⑥口⑦ |②-③-|
口③②① |④-⑤-|
口口口口 |⑥-⑦-|
62
①口口口 |①-②-|
②口⑤口 |③-④-|
口⑤口④ |⑤---|
口口口③ |----|

不確定度: 0

最終更新:2017年08月03日 01:44