ハイパーリアリスト
パスピエ

BASIC

Level: 2
BPM: 160
Notes: 186

1
口口口口 |----|
口口口口 |----|
口口口口 |----|
口口口口 |----|
2
口口口口 |①---|
口①②口 |----|
口口口口 |②---|
口口口口 |----|
3
口口口口 |①---|
口口口口 |----|
口①②口 |②---|
口口口口 |----|
4
口口口口 |①---|
①口口② |----|
口口口口 |②---|
口口口口 |----|
5
口口口口 |①---|
口口口口 |----|
①口口② |②---|
口口口口 |----|
6
口口口口 |①---|
口①①口 |----|
口口口口 |----|
口口口口 |----|
7
口口口口 |①---|
口口口口 |----|
口①①口 |----|
口口口口 |----|
8
口口口口 |①---|
口口口口 |----|
①口口① |----|
口口口口 |----|
9
口口口口 |①---|
①口口① |----|
口②②口 |②---|
口口口口 |----|
10
口口口口 |----|
口口口口 |----|
口口口口 |----|
口口口口 |----|
11
口口口口 |----|
口口口口 |----|
口口口口 |----|
口口口口 |----|
12
口口口口 |----|
口口口口 |----|
口口口口 |----|
口口口口 |----|
13
口口口口 |----|
①②口口 |----|
口口口口 |①---|
口口口口 |②---|
14
口口口口 |----|
口口②① |----|
口口口口 |①---|
口口口口 |②---|
15
口口口口 |----|
口口口口 |----|
①②口口 |①---|
口口口口 |②---|
16
口口口口 |①---|
口口口② |----|
口口①口 |②---|
口口口口 |----|
17
口口口口 |----|
①②口口 |----|
口口口口 |①---|
口口口口 |②---|
18
口口口口 |----|
口口②① |----|
口口口口 |①---|
口口口口 |②---|
19
口口口口 |----|
口口口口 |----|
①②口口 |①---|
口口口口 |②---|
20
口口口③ |①---|
口口口② |----|
口口①口 |②---|
口口口口 |③---|
21
口①②③ |----|
口口口口 |①---|
口口口口 |②---|
口口口口 |③---|
22
口口口口 |①---|
④③②① |②---|
口口口口 |③---|
口口口口 |④---|
23
口口口口 |----|
口口口口 |①---|
口口口口 |②---|
口①②③ |③---|
24
口口口口 |①---|
口口口口 |②---|
④③②① |③---|
口口口口 |④---|
25
口①②③ |----|
口口口口 |①---|
口口口口 |②---|
口口口口 |③---|
26
口口口口 |①---|
④③②① |②---|
口口口口 |③---|
口口口口 |④---|
27
口口口口 |①---|
口口口口 |----|
口②②口 |②---|
口①①口 |----|
28
口口口口 |①---|
①口口① |----|
③口口③ |②---|
②口口② |③---|
29
口口口口 |①---|
①口口① |----|
口②②口 |②---|
口口口口 |----|
30
口①①口 |①---|
口口口口 |----|
③口口③ |②---|
②口口② |③---|
31
口口口口 |①---|
①口口① |----|
口②②口 |②---|
口口口口 |----|
32
口①①口 |①---|
口口口口 |----|
口②②口 |②---|
口口口口 |----|
33
③口口③ |①---|
②④④② |②---|
①口口① |③---|
口口口口 |④---|
34
口口口口 |----|
口口口口 |----|
口①①口 |①---|
口口口口 |----|
35
口③③口 |①---|
口②②口 |----|
①口口① |②---|
口口口口 |③---|
36
口口口口 |----|
口口口口 |----|
②口口② |①---|
①口口① |②---|
37
口口口口 |①---|
①口口① |----|
口②②口 |②---|
口口口口 |----|
38
口①①口 |①---|
口口口口 |----|
③口口③ |②---|
②口口② |③---|
39
口口口口 |①---|
①口口① |----|
口②②口 |②---|
口口口口 |----|
40
口①①口 |①---|
口口口口 |----|
口②②口 |②---|
口口口口 |----|
41
③口口③ |①---|
②④④② |②---|
①口口① |③---|
口口口口 |④---|
42
口口口口 |----|
口口口口 |----|
口①①口 |①---|
口口口口 |----|
43
口③③口 |①---|
口②②口 |----|
①口口① |②---|
口口口口 |③---|
44
口口口口 |----|
口口口口 |----|
②口口② |①---|
①口口① |②---|
45
口口口口 |①---|
①口口① |----|
口②②口 |②---|
口口口口 |----|
46
口①①口 |①---|
口口口口 |----|
③口口③ |②---|
②口口② |③---|
47
口口口口 |①---|
①口口① |----|
口②②口 |②---|
口口口口 |----|
48
口①①口 |①---|
口口口口 |----|
②②②② |②---|
口口口口 |----|
49
口口口口 |①---|
①①①① |----|
口口口口 |----|
口口口口 |----|
50
口口口口 |----|
口口口口 |----|
口口口口 |----|
口口口口 |----|
51
口口口口 |----|
口口口口 |----|
口口口口 |----|
口口口口 |----|
52
口口口口 |----|
口口口口 |----|
口口口口 |----|
口口口口 |----|
53
口口口口 |①---|
口①口口 |----|
口②口口 |②---|
口口口口 |----|
54
口口口口 |①---|
口口②口 |----|
口口①口 |②---|
口口口口 |----|
55
口口口口 |①---|
口①口口 |----|
口②口口 |②---|
口口口口 |----|
56
口口口口 |①---|
口口②口 |----|
口口①口 |②---|
口口口口 |----|
57
口口口口 |①---|
口①口口 |----|
口②口口 |②---|
口口口口 |----|
58
口口口口 |①---|
口口②口 |----|
口口①口 |②---|
口口口口 |----|
59
口口口口 |①---|
①①口口 |----|
②②口口 |②---|
口口口口 |----|
60
口口口口 |①---|
口口②② |----|
口口①① |②---|
口口口口 |----|

不確定度: 0

最終更新:2017年08月03日 01:43