ハイパーリアリスト
パスピエ

ADVANCED

Level: 5
BPM: 160
Notes: 283

1
口口口口 |----|
口口口口 |----|
口口口口 |----|
口口口口 |----|
2
⑤口口口 |①---|
口②③④ |②-③-|
①口口口 |④---|
口口口口 |⑤---|
3
口口口④ |①---|
口③口口 |②---|
①口口② |③---|
口口口口 |④---|
4
①口口口 |①---|
口口口② |----|
口口口口 |②---|
口口口口 |----|
5
口口口口 |①---|
口口口口 |②---|
口口口口 |③---|
①②③口 |----|
6
⑤口口口 |①---|
口②③④ |②-③-|
①口口口 |④---|
口口口口 |⑤---|
7
口口口④ |①---|
口③口口 |②---|
①口口② |③---|
口口口口 |④---|
8
①口口口 |①---|
口口口② |----|
口口口口 |②---|
口口口口 |----|
9
口口口口 |①---|
口口口口 |②---|
口口口口 |③---|
①②③口 |----|
10
口口口口 |----|
口口口口 |----|
口口口口 |----|
口口口口 |----|
11
口口口口 |----|
口口口口 |----|
口口口口 |----|
口口口口 |----|
12
口口口口 |----|
口口口口 |----|
口口口口 |----|
口口口口 |----|
13
口口口口 |----|
①②③④ |----|
口口口口 |①-②-|
口口口口 |③-④-|
14
口口口口 |----|
口口口口 |----|
④③②① |①-②-|
口口口口 |③-④-|
15
口口口口 |----|
①②③④ |----|
口口口口 |①-②-|
口口口口 |③-④-|
16
③口⑤④ |①---|
口口口口 |②---|
口①口② |③---|
口口口口 |④-⑤-|
17
口口口口 |----|
①②③④ |----|
口口口口 |①-②-|
口口口口 |③-④-|
18
口口口口 |----|
口口口口 |----|
④③②① |①-②-|
口口口口 |③-④-|
19
①口口口 |----|
②③④⑤ |--①-|
口口口口 |②-③-|
口口口口 |④-⑤-|
20
口口口① |①---|
口口口口 |②-③-|
口②③口
口口口口

口口口⑤
口口口口
口口口④ |④---|
口口口口 |⑤---|
21
口口口口 |----|
③③口口 |①---|
口口②② |②---|
①①口口 |③---|
22
口口①① |①---|
口口口口 |②---|
口口口口
口②②口

⑤口口⑤
口④④口
口③③口 |③---|
口口口口 |④-⑤-|
23
口口口口 |----|
③③口口 |①---|
口口②② |②---|
①①口口 |③---|
24
口口①① |①---|
口口口口 |②---|
口口口口
口②②口

⑤口口⑤
口④④口
口③③口 |③---|
口口口口 |④-⑤-|
25
口口口口 |----|
③③口口 |①---|
口口②② |②---|
①①口口 |③---|
26
②②①① |①---|
口口③③ |②---|
④④口口 |③---|
⑤⑤口口 |④-⑤-|
27
④口口④ |----|
口③③口 |①-②-|
口口①① |----|
口口②② |③-④-|
28
口②口口 |----|
①口口口 |----|
口②口口 |①---|
口口口口 |②---|
29
口口①口 |①---|
口口口口 |--②-|
②口①②
口口口口

口口口口
③口口③
口④④口 |③---|
口口口口 |--④-|
30
口口③口 |①---|
口①①② |----|
口口③口 |②---|
口口口口 |③---|
31
口①口口 |①---|
口口口口 |--②-|
②①口②
口口口口

口口口口
③口口③
口④④口 |③---|
口口口口 |--④-|
32
③口口③ |①---|
口①①口 |----|
②口口② |②---|
口口口口 |③---|
33
口口口口 |①---|
口②③④ |②-③-|
口口口口 |④---|
⑤①①⑤ |⑤---|
34
①口口① |----|
②口口② |①---|
口③③口 |②---|
口口口口 |③---|
35
③①①③ |----|
口口口口 |①---|
口口口口 |②---|
口②②口 |③---|
36
口②口口 |----|
①口口口 |----|
口②口口 |①---|
口口口口 |②---|
37
口口①口 |①---|
口口口口 |--②-|
②口①②
口口口口

口口口口
③口口③
口④④口 |③---|
口口口口 |--④-|
38
口口③口 |①---|
口①①② |----|
口口③口 |②---|
口口口口 |③---|
39
口①口口 |①---|
口口口口 |--②-|
②①口②
口口口口

口口口口
③口口③
口④④口 |③---|
口口口口 |--④-|
40
③口口③ |①---|
口①①口 |----|
②口口② |②---|
口口口口 |③---|
41
口口口口 |①---|
口②③④ |②-③-|
口口口口 |④---|
⑤①①⑤ |⑤---|
42
①口口① |----|
②口口② |①---|
口③③口 |②---|
口口口口 |③---|
43
③①①③ |----|
口口口口 |①---|
口口口口 |②---|
口②②口 |③---|
44
口②口口 |----|
①口口口 |----|
口②口口 |①---|
口口口口 |②---|
45
口口①口 |①---|
口口口口 |--②-|
②口①②
口口口口

口口口口
③口口③
口④④口 |③---|
口口口口 |--④-|
46
口口③口 |①---|
口①①② |----|
口口③口 |②---|
口口口口 |③---|
47
口①口口 |①---|
口口口口 |--②-|
②①口②
口口口口

口口口口
③口口③
口④④口 |③---|
口口口口 |--④-|
48
口口口口 |①---|
口①①口 |----|
口口口口 |②---|
②②②② |----|
49
①①①① |①---|
口口口口 |----|
口口口口 |----|
口口口口 |----|
50
口口口口 |----|
口口口口 |----|
口口口口 |----|
口口口口 |----|
51
口口口口 |----|
口口口口 |----|
口口口口 |----|
口口口口 |----|
52
口口口口 |----|
口口口口 |----|
口口口口 |----|
口口口口 |----|
53
口口口口 |①---|
口口口口 |②---|
③①②④ |③---|
口口口口 |④---|
54
口口口口 |①---|
①②③④ |②---|
口口口口 |③---|
口口口口 |④---|
55
口口口口 |①---|
口口口口 |②---|
③①②④ |③---|
口口口口 |④---|
56
口口口口 |①---|
④③②① |②---|
口口口口 |③---|
口口口口 |④---|
57
口口口口 |①---|
口口口口 |②---|
③①②④ |③---|
口口口口 |④---|
58
口口口口 |①---|
①②③④ |②---|
口口口口 |③---|
口口口口 |④---|
59
口口口口 |①---|
口口口口 |②---|
③①②④ |③---|
口口口口 |④---|
60
③④口口 |①---|
口口②① |②---|
口口口口 |③---|
口口口口 |④---|

不確定度: 0

最終更新:2017年08月03日 01:43