あなたに恋をしてみました
chay

BASIC

Level: 1
BPM: 137
Notes: 109

1
口口口口 |----|
口口口口 |----|
口口口口 |----|
口口口口 |----|
2
口口口口 |①---|
口口口① |----|
口口口口 |----|
口口口口 |----|
3
口口口口 |①---|
口口①口 |----|
口口口口 |----|
口口口口 |----|
4
口口口口 |①---|
口①口口 |----|
口口口口 |----|
口口口口 |----|
5
口口口口 |①---|
①口口口 |----|
口口口口 |----|
口口口口 |----|
6
口口口口 |①---|
口口口口 |----|
①口口口 |----|
口口口口 |----|
7
口口口口 |①---|
口口口口 |----|
口①口口 |----|
口口口口 |----|
8
口口口口 |①---|
口口口口 |----|
口口①口 |----|
口口口口 |----|
9
口口口口 |①---|
口口口口 |----|
口口口① |----|
口口口口 |----|
10
口口口口 |①---|
口口①① |----|
口口口口 |----|
口口口口 |----|
11
口口口口 |①---|
口口口口 |----|
口口①口 |----|
口口口口 |----|
12
口口口口 |①---|
①①口口 |----|
口口口口 |----|
口口口口 |----|
13
口口口口 |①---|
口口口口 |----|
口①口口 |----|
口口口口 |----|
14
口口口口 |①---|
口口口口 |----|
口口口口 |②---|
口①②口 |----|
15
口口口口 |①---|
口口口口 |----|
口①②口 |②---|
口口口口 |----|
16
口口口口 |①---|
口口口口 |----|
口口口口 |----|
口①①口 |----|
17
口口口口 |①---|
口口口口 |----|
口①①口 |----|
口口口口 |----|
18
口口口口 |①---|
①口口① |----|
②口口② |②---|
口口口口 |----|
19
口口口口 |①---|
口口口口 |----|
口口口口 |----|
①口口① |----|
20
口口口口 |①---|
①口口口 |----|
口口口口 |----|
口口口口 |----|
21
口口口口 |①---|
口口口口 |----|
①口口口 |----|
口口口口 |----|
22
口口口口 |①---|
口口口口 |----|
口口口口 |----|
①口口口 |----|
23
口口口口 |①---|
口口口口 |----|
口口口口 |----|
口①口口 |----|
24
口口口口 |①---|
口口口口 |----|
口①口口 |----|
口口口口 |----|
25
口口口口 |①---|
口①口口 |----|
口口口口 |----|
口口口口 |----|
26
口①口口 |①---|
口口口口 |----|
口口口口 |----|
口口口口 |----|
27
口口①口 |①---|
口口口口 |----|
口口口口 |----|
口口口口 |----|
28
口口口口 |①---|
口口①口 |----|
口口口口 |----|
口口口口 |----|
29
口口口口 |①---|
口口口口 |----|
口口①口 |----|
口口口口 |----|
30
口口口口 |①---|
口口口口 |----|
口口口口 |----|
口口①口 |----|
31
口口口口 |①---|
口口口口 |----|
口口口口 |----|
口①口口 |----|
32
口口口口 |①---|
口口口口 |----|
口①口口 |----|
口口口口 |----|
33
口口口口 |①---|
口①口口 |----|
口口口口 |----|
口口口口 |----|
34
口①口口 |①---|
口口口口 |----|
口口口口 |----|
口口口口 |----|
35
口口口口 |①---|
口①①口 |----|
口口口口 |----|
口口口口 |----|
36
口口口口 |①---|
口口口口 |----|
口①①口 |----|
口口口口 |----|
37
口口口口 |①---|
口口口① |----|
口口口口 |----|
口口口口 |----|
38
口口口① |①---|
口口口口 |----|
口口口口 |----|
口口口口 |----|
39
口②①口 |①---|
口口口口 |----|
口口口口 |②---|
口口口口 |----|
40
口口口口 |①---|
口②①口 |----|
口口口口 |②---|
口口口口 |----|
41
口口口口 |①---|
口口口口 |----|
口②①口 |②---|
口口口口 |----|
42
口口口口 |①---|
口口口口 |----|
口口口口 |②---|
口②①口 |----|
43
口口口口 |①---|
口口口口 |----|
口口口口 |②---|
②口口① |----|
44
口口口口 |①---|
口口口口 |----|
②口口① |②---|
口口口口 |----|
45
口口口口 |①---|
②口口① |----|
口口口口 |②---|
口口口口 |----|
46
②口口① |①---|
口口口口 |----|
口口口口 |②---|
口口口口 |----|
47
口①①口 |①---|
口口口口 |----|
口口口口 |----|
口口口口 |----|
48
口口①① |①---|
口口②口 |----|
口口口口 |②---|
口口口口 |----|
49
口口口口 |①---|
口口口口 |----|
口口①口 |②---|
口口②口 |----|
50
①①口口 |①---|
口②口口 |----|
口口口口 |②---|
口口口口 |----|
51
口口口口 |①---|
口口口口 |----|
口①口口 |②---|
口②口口 |----|
52
口口口口 |①---|
口口口口 |----|
口口②口 |②---|
口口①口 |----|
53
口口②口 |①---|
口口①口 |----|
口口口口 |②---|
口口口口 |----|
54
口①口口 |①---|
口②口口 |----|
口口口口 |②---|
口口口口 |----|
55
口口口口 |①---|
口口口口 |----|
口①口口 |②---|
口②口口 |----|
56
口口①① |①---|
口口②口 |----|
口口口口 |②---|
口口口口 |----|
57
口口口口 |①---|
口口口口 |----|
口口①口 |②---|
口口②口 |----|
58
①①口口 |①---|
口②口口 |----|
口口口口 |②---|
口口口口 |----|
59
口口口口 |①---|
口口口口 |----|
口①口口 |②---|
口②口口 |----|
60
口口口口 |①---|
口口口口 |----|
口①②口 |②---|
口口口口 |----|
61
口口口口 |①---|
口①②口 |----|
口口口口 |②---|
口口口口 |----|
62
口口口口 |①---|
口口口口 |----|
口①①口 |----|
口口口口 |----|
63
口口口口 |①---|
口①①口 |----|
口口口口 |----|
口口口口 |----|
64
①口口① |①---|
②口口② |----|
口口口口 |②---|
口口口口 |----|
65
口口口口 |①---|
口口口口 |----|
①口口① |----|
口口口口 |----|

不確定度: 0

最終更新:2017年08月03日 01:31