あなたに恋をしてみました
chay

ADVANCED

Level: 5
BPM: 137
Notes: 291

1
口口口口 |----|
口口口口 |----|
口口口口 |----|
口口口口 |----|
2
口口口口 |①---|
口口①① |----|
口口口口 |----|
口口口口 |----|
3
口口口口 |①---|
①①口口 |----|
口口口口 |----|
口口口口 |----|
4
口口口口 |①---|
口口口口 |----|
口口①① |----|
口口口口 |----|
5
口口口口 |①---|
口口口口 |----|
①①口口 |----|
口口口口 |----|
6
口口口口 |①---|
口口①① |----|
口口口口 |----|
口口口口 |----|
7
口口口口 |①---|
①①口口 |----|
口口口口 |----|
口口口口 |----|
8
口口口口 |①---|
口口口口 |----|
口口①① |----|
口口口口 |----|
9
口口口口 |①---|
口④④口 |----|
①①口口 |--②-|
口③②口 |③-④-|
10
①②③④ |--①-|
口⑤⑥口 |②-③-|
口口口口 |④---|
口口口口 |⑤-⑥-|
11
口口口口 |--①-|
口⑤⑤口 |②-③-|
①②③④ |④---|
口口口口 |--⑤-|
12
④③②① |--①-|
口⑥⑤口 |②-③-|
口口口口 |④---|
口口口口 |⑤-⑥-|
13
口口口口 |--①-|
④口口③ |②---|
③②①④ |--③-|
口口口口 |--④-|
14
口口口口 |----|
口⑤①口 |①-②-|
口④②口 |③---|
口口③口 |④-⑤-|
15
口口①① |--①-|
口口②口 |--②-|
口口③口 |③---|
口口口口 |----|
16
口口口口 |①---|
口口口口 |②-③-|
②③④口 |④---|
口①⑤口 |--⑤-|
17
口④④口 |----|
口口口口 |①-②-|
口③②① |③---|
口口口口 |④---|
18
②口口③ |①---|
口①①口 |②-③-|
口口口口
口口口口

口口口口
④⑥⑥⑤
口⑥⑥口 |④-⑤-|
口口口口 |--⑥-|
19
口口口口 |----|
口口口口 |----|
口①①口 |----|
口口口口 |--①-|
20
口口口口 |----|
口①①口 |----|
口口口口 |----|
口口口口 |--①-|
21
口口口口 |----|
口口口口 |----|
口①①口 |----|
口口口口 |--①-|
22
口口口口 |----|
口口口口 |----|
口口口口 |----|
口口口口 |----|
23
口口口口 |①---|
口①②口 |②---|
口口口口 |----|
口口口口 |----|
24
口口口① |----|
口口口② |①---|
口口口③ |②---|
口口口口 |③---|
25
口口口口 |①-②-|
口口口口 |③-④-|
口④③口 |----|
口②①口 |----|
26
口口口口 |①-②-|
口口口口 |③-④-|
⑥④③口 |----|
⑤②①口 |⑤-⑥-|
27
②口口口 |①-②-|
①③③口 |--③-|
口口④口 |----|
口口口口 |④---|
28
口口口口 |①---|
口②②口 |--②-|
口⑤④③ |--③-|
口①口口 |④-⑤-|
29
口口口口 |①---|
口口口口 |----|
①口口口 |----|
口口口口 |----|
30
口口口口 |----|
口口口口 |----|
口口口口 |----|
口口口口 |----|
31
口口口口 |①---|
口②①口 |②---|
口口口口 |----|
口口口口 |----|
32
①口口口 |----|
②口口口 |①---|
③口口口 |②---|
口口口口 |③---|
33
口口口口 |①-②-|
口口口口 |③-④-|
口③④口 |----|
口①②口 |----|
34
口口口口 |①-②-|
口⑤⑤口 |③-④-|
口③④口 |----|
口①②口 |⑤---|
35
②②①① |①---|
口③③口 |--②-|
口口口口 |----|
口口口口 |③---|
36
口⑥⑥口 |①---|
⑤④③② |②-③-|
口①①口 |④-⑤-|
口口口口 |--⑥-|
37
口口口口 |----|
口口口口 |----|
口口口口 |----|
口口口口 |----|
38
口口口口 |①---|
④口③② |--②-|
口①①口 |③---|
口口口口 |④---|
39
口①口口 |①---|
④②口口 |②---|
口③口口 |③---|
口口口口 |--④-|
40
口口口口 |①-②-|
口①②③ |③-④-|
口口⑤④ |⑤---|
口⑥⑥口 |⑥---|
41
口口口口 |----|
口⑤口口 |--①-|
口③④口 |②-③-|
口①②口 |④-⑤-|
42
口口口口 |--①-|
①口口① |--②-|
②口口② |--③-|
③口口③ |----|
43
口口口口 |----|
①①口口 |①---|
②②口③ |②---|
口口口口 |--③-|
44
口⑤口口 |①-②-|
②②④④ |--③-|
③③①口 |--④-|
口口口口 |--⑤-|
45
口口①口 |①-②-|
⑥②③⑦ |③-④-|
口④⑤口 |⑤---|
口口口口 |⑥-⑦-|
46
口口口口 |----|
口口口口 |----|
口口口口 |----|
口口口口 |----|
47
口③③口 |----|
口口口口 |----|
口口②口 |--①-|
口口①口 |②-③-|
48
口口口口 |--①-|
①②③④ |②-③-|
口⑤⑥口 |④---|
口口口口 |⑤-⑥-|
49
口口口口 |--①-|
口⑤⑤口 |②-③-|
口口口口 |④---|
①②③④ |--⑤-|
50
④③②① |--①-|
口⑥⑤口 |②-③-|
口口口口 |④---|
口口口口 |⑤-⑥-|
51
③④⑤口 |--①-|
口口口口 |②---|
口②①口 |--③-|
口口口口 |④-⑤-|
52
口口口口 |--①-|
口③②① |②-③-|
口⑤⑤口 |--④-|
口④④口 |⑤---|
53
①口口① |①---|
口②②口 |②-③-|
口③③口 |----|
口口口口 |----|
54
②②①① |①--②|
口③③口 |--③-|
⑤口口④ |--④-|
口⑥⑥口 |⑤--⑥|
55
口④④口 |--①-|
口①①口 |----|
口口③口 |--②-|
口口②口 |③-④-|
56
口口口口 |--①-|
①②③④ |②-③-|
口⑤⑥口 |④---|
口口口口 |⑤-⑥-|
57
口口口口 |--①-|
口⑤⑤口 |②-③-|
口口口口 |④---|
①②③④ |--⑤-|
58
④③②① |--①-|
口⑥⑤口 |②-③-|
口口口口 |④---|
口口口口 |⑤-⑥-|
59
口口口口 |--①-|
④口口③ |②---|
③②①④ |--③-|
口口口口 |--④-|
60
口口口口 |----|
口⑤①口 |①-②-|
口④②口 |③---|
口口③口 |④-⑤-|
61
口口①① |--①-|
口口②口 |--②-|
口口③口 |③---|
口口口口 |----|
62
口口口口 |①---|
口口口口 |②-③-|
②③④口 |④---|
口①⑤口 |--⑤-|
63
口④④口 |----|
口口口口 |①-②-|
口③②① |③---|
口口口口 |④---|
64
②口口③ |①---|
口①①口 |②-③-|
口口口口
口口口口

口口口口
④⑥⑥⑤
口⑥⑥口 |④-⑤-|
口口口口 |--⑥-|

不確定度: 0

最終更新:2017年08月03日 01:30